<?xml version="1.0" standalone="no"?>
<!DOCTYPE svg PUBLIC "-//W3C//DTD SVG 1.1//EN" "http://www.w3.org/Graphics/SVG/1.1/DTD/svg11.dtd" >
<svg xmlns="http://www.w3.org/2000/svg" xmlns:xlink="http://www.w3.org/1999/xlink" version="1.1">
<metadata>
Created by FontForge 20201107 at Mon Jun  3 13:20:51 2024
 By 
Copyright 2018 Airbnb. All rights reserved.
</metadata>
<defs>
<font id="AirbnbCerealWBk" horiz-adv-x="0" >
  <font-face 
    font-family="AirbnbCereal_W_Bk"
    font-weight="400"
    font-stretch="normal"
    units-per-em="2048"
    panose-1="2 11 5 2 2 2 3 2 2 4"
    ascent="1638"
    descent="-410"
    x-height="1057"
    cap-height="1454"
    bbox="-422 -520 2136 1939"
    underline-thickness="129"
    underline-position="-394"
    unicode-range="U+000D-FFFD"
  />
<missing-glyph horiz-adv-x="1024" 
d="M922 0h-820v1536h820v-1536zM205 102h614v1332h-614v-1332z" />
    <glyph glyph-name="f_i.liga" unicode="fi" horiz-adv-x="1214" 
d="M33 918v139h194v98q0 104 35.5 189.5t112.5 140.5t184 55q97 0 174 -47l-47 -127q-54 31 -117 31q-51 0 -87 -21t-55 -58t-27.5 -78t-8.5 -89v-94h680v-1057h-164v918h-516v-918h-164v918h-194zM877 1366q0 46 33 79.5t79 33.5q48 0 80.5 -32t32.5 -81q0 -46 -33.5 -79.5
t-79.5 -33.5q-44 0 -78 34.5t-34 78.5z" />
    <glyph glyph-name="f_f.liga" unicode="ff" horiz-adv-x="1454" 
d="M33 1057h194v98q0 109 38 194.5t118 138t192 52.5q110 0 199 -53l-47 -127q-72 37 -141 37q-54 0 -93.5 -19.5t-61 -55t-31 -77.5t-9.5 -94v-94h516v98q0 166 91.5 275.5t256.5 109.5q110 0 199 -53l-47 -127q-72 37 -141 37q-54 0 -93.5 -19.5t-61 -55t-31 -77.5
t-9.5 -94v-94h334v-139h-334v-918h-164v918h-516v-918h-164v918h-194v139z" />
    <glyph glyph-name="f_f_i.liga" unicode="ffi" horiz-adv-x="1894" 
d="M227 918h-194v139h194v98q0 109 38 194.5t118 138t192 52.5q110 0 199 -53l-47 -127q-72 37 -141 37q-54 0 -93.5 -19.5t-61 -55t-31 -77.5t-9.5 -94v-94h516v98q0 104 35.5 189.5t112.5 140.5t184 55q97 0 174 -47l-47 -127q-54 31 -117 31q-51 0 -87 -21t-55 -58
t-27.5 -78t-8.5 -89v-94h680v-1057h-164v918h-516v-918h-164v918h-516v-918h-164v918zM1556 1366q0 46 33.5 79.5t79.5 33.5q48 0 80.5 -32t32.5 -81q0 -46 -33.5 -79.5t-79.5 -33.5q-44 0 -78.5 34.5t-34.5 78.5z" />
    <glyph glyph-name=".notdef" horiz-adv-x="1024" 
d="M922 0h-820v1536h820v-1536zM205 102h614v1332h-614v-1332z" />
    <glyph glyph-name="uni0000" 
 />
    <glyph glyph-name="uni0000" 
 />
    <glyph glyph-name="uni000D" unicode="&#xd;" horiz-adv-x="448" 
 />
    <glyph glyph-name="space" unicode=" " horiz-adv-x="448" 
 />
    <glyph glyph-name="exclam" unicode="!" horiz-adv-x="475" 
d="M150 1454h176l-9 -1067h-159zM119 113q0 48 35 83t84 35q48 0 83 -34.5t35 -83.5q0 -47 -35.5 -83t-82.5 -36t-83 36t-36 83z" />
    <glyph glyph-name="quotedbl" unicode="&#x22;" horiz-adv-x="741" 
d="M471 1454h150l-7 -530h-137zM121 1454h149l-6 -530h-137z" />
    <glyph glyph-name="numbersign" unicode="#" horiz-adv-x="1345" 
d="M334 397h-225l10 119h223l33 393h-219l10 119h219l31 385h135l-31 -385h361l30 385h136l-31 -385h221l-10 -119h-221l-33 -393h217l-10 -119h-215l-33 -397h-135l32 397h-360l-33 -397h-135zM477 516h361l32 393h-360z" />
    <glyph glyph-name="dollar" unicode="$" horiz-adv-x="1216" 
d="M123 338l151 37q83 -218 285 -248v539h-4q-82 16 -150 43.5t-125.5 72t-89.5 111.5t-32 151q0 166 114.5 271t286.5 117v247h119v-249q151 -19 255 -108.5t144 -236.5l-149 -36q-38 102 -95 159.5t-155 75.5v-483l35 -6q82 -15 149.5 -45.5t120.5 -78t82 -117t29 -155.5
q0 -175 -119 -290t-297 -127v-269h-119v271q-158 15 -271 108t-165 246zM678 643v-516q114 13 186 81.5t72 182.5q0 105 -72 166t-186 86zM317 1053q0 -175 242 -228v463q-104 -11 -173 -72.5t-69 -162.5z" />
    <glyph glyph-name="percent" unicode="%" horiz-adv-x="1484" 
d="M784 299q0 135 88.5 226t225.5 91q134 0 221.5 -90.5t87.5 -226.5t-88 -226.5t-225 -90.5q-134 0 -222 90.5t-88 226.5zM78 1114q0 135 88.5 226.5t224.5 91.5q134 0 221.5 -91t87.5 -227t-88 -226.5t-225 -90.5q-134 0 -221.5 90.5t-87.5 226.5zM377 0h-152l883 1413
h152zM389 1305q-76 0 -122 -56t-46 -135q0 -77 46 -133.5t122 -56.5q79 0 123.5 55t44.5 135t-44.5 135.5t-123.5 55.5zM1096 489q-77 0 -122.5 -55.5t-45.5 -134.5q0 -77 46 -133.5t122 -56.5q79 0 123.5 55t44.5 135t-44.5 135t-123.5 55z" />
    <glyph glyph-name="ampersand" unicode="&#x26;" horiz-adv-x="1404" 
d="M557 -41q-92 0 -176 28t-150 78.5t-105.5 130t-39.5 175.5q0 133 80.5 241t208.5 170q-180 188 -180 357q0 149 105 247.5t257 98.5q148 0 251 -88.5t103 -237.5q0 -233 -293 -399l388 -381q100 182 116 407l156 -14q-31 -295 -164 -500l277 -272h-222l-151 150
q-185 -191 -461 -191zM258 381q0 -123 92 -195.5t221 -72.5q193 0 340 141l-436 432q-98 -49 -157.5 -126.5t-59.5 -178.5zM559 1339q-86 0 -143.5 -58t-57.5 -146q0 -115 148 -263l12 -10q234 117 234 291q0 83 -54.5 134.5t-138.5 51.5z" />
    <glyph glyph-name="quotesingle" unicode="'" horiz-adv-x="391" 
d="M127 924l-6 530h149l-6 -530h-137z" />
    <glyph glyph-name="parenleft" unicode="(" horiz-adv-x="661" 
d="M453 -276q-172 197 -262.5 438t-90.5 502t90.5 502t262.5 438h172q-371 -415 -371 -940t371 -940h-172z" />
    <glyph glyph-name="parenright" unicode=")" horiz-adv-x="661" 
d="M209 -276h-172q371 415 371 940t-371 940h172q352 -400 352 -940q0 -538 -352 -940z" />
    <glyph glyph-name="asterisk" unicode="*" horiz-adv-x="806" 
d="M231 725l-110 82l190 242l-284 79l41 132l280 -105l-14 299h139l-14 -299l280 105l41 -132l-284 -79l190 -242l-111 -82l-172 260z" />
    <glyph glyph-name="plus" unicode="+" horiz-adv-x="1216" 
d="M184 633h351v356h145v-356h352v-137h-352v-369h-145v369h-351v137z" />
    <glyph glyph-name="comma" unicode="," horiz-adv-x="477" 
d="M152 -369l-46 101q80 39 129.5 99.5t49.5 141.5q0 41 -17 80q-21 -24 -59 -24q-43 0 -70 30q-30 30 -30 74q0 46 36 76.5t82 30.5q59 0 102 -41.5t62 -96.5t19 -112q0 -123 -70 -216.5t-188 -142.5z" />
    <glyph glyph-name="hyphen" unicode="-" horiz-adv-x="763" 
d="M100 489v150h564v-150h-564z" />
    <glyph glyph-name="period" unicode="." horiz-adv-x="477" 
d="M117 117q0 52 34.5 87.5t86.5 35.5q65 0 106 -60q16 -29 16 -63q0 -33 -16 -62q-39 -61 -106 -61q-49 0 -85 36.5t-36 86.5z" />
    <glyph glyph-name="slash" unicode="/" horiz-adv-x="870" 
d="M27 -215l663 1757h154l-664 -1757h-153z" />
    <glyph glyph-name="zero" unicode="0" horiz-adv-x="1234" 
d="M616 -31q-113 0 -204 45.5t-148 118.5t-95 171.5t-53.5 198t-15.5 204.5q0 74 7.5 145t25.5 145t45.5 138.5t69.5 122t94.5 98.5t123.5 64.5t155 23.5q115 0 206 -45t148 -117.5t94.5 -170.5t52.5 -197.5t15 -206.5q0 -73 -7.5 -144.5t-26 -145.5t-46 -138.5t-69.5 -122
t-94 -98.5t-123.5 -65t-154.5 -24zM272 707q0 -52 3.5 -103t14 -110t27 -110.5t43.5 -100.5t62 -83.5t85.5 -55.5t110.5 -21q70 0 127 27t93.5 74.5t62.5 104.5t39.5 126t19 129t5.5 123t-5.5 122.5t-18.5 128.5t-39 126t-62.5 104.5t-93.5 74.5t-128 27q-70 0 -126.5 -27
t-93 -74.5t-62.5 -104.5t-39.5 -125.5t-19 -129t-5.5 -122.5z" />
    <glyph glyph-name="one" unicode="1" horiz-adv-x="849" 
d="M451 0v1227l-336 -189l-68 136l434 239h137v-1413h-167z" />
    <glyph glyph-name="two" unicode="2" horiz-adv-x="1153" 
d="M106 1073q40 167 166.5 269t298.5 102q121 0 221 -52.5t160 -150.5t60 -221q0 -80 -27 -159.5t-77.5 -152.5t-99.5 -128.5t-116 -120.5q-194 -178 -338 -301h682v-158h-930v139q106 88 170 143t156 138t166.5 161.5t136.5 157.5q105 139 105 265q0 169 -129 251
q-62 35 -144 35q-115 0 -194 -70t-111 -186z" />
    <glyph glyph-name="three" unicode="3" horiz-adv-x="1153" 
d="M74 326l157 36q40 -114 125 -176.5t205 -62.5q129 0 222.5 72.5t93.5 197.5q0 88 -46 150t-117.5 89t-160.5 27h-154v154h148q125 0 212 63t87 185q0 109 -81.5 169t-195.5 60q-113 0 -194 -60.5t-115 -168.5l-156 37q42 163 171 254.5t303 91.5q84 0 162 -24.5
t140.5 -69.5t100 -118t37.5 -163q0 -112 -56 -197t-159 -129q116 -41 181 -134.5t65 -217.5q0 -94 -41.5 -174.5t-109.5 -134t-154.5 -83.5t-178.5 -30q-180 0 -309.5 92.5t-181.5 264.5z" />
    <glyph glyph-name="four" unicode="4" horiz-adv-x="1187" 
d="M78 334v131l672 948h168v-936h182v-143h-182v-334h-162v334h-678zM258 477h498v703z" />
    <glyph glyph-name="five" unicode="5" horiz-adv-x="1126" 
d="M567 -31q-173 0 -305.5 96.5t-183.5 262.5l158 37q35 -111 124.5 -176.5t206.5 -65.5q134 0 223 89.5t89 225.5q0 137 -87.5 223.5t-226.5 86.5q-70 0 -145.5 -31.5t-120.5 -81.5l-137 18v760h786v-158h-629v-452q104 98 275 98q197 0 327 -131t130 -332q0 -131 -65 -239
t-175.5 -169t-243.5 -61z" />
    <glyph glyph-name="six" unicode="6" horiz-adv-x="1193" 
d="M100 653q0 115 22.5 226t72 214t121 180.5t176.5 124t231 46.5q174 0 317 -98l-63 -136q-106 80 -248 80q-97 0 -176.5 -38t-132 -100.5t-88.5 -146t-52 -171t-16 -177.5q49 123 149 186.5t234 63.5q199 0 335 -130.5t136 -330.5q0 -134 -66 -243.5t-179 -171.5t-248 -62
q-108 0 -197 39.5t-148.5 106t-101 155.5t-60 185t-18.5 198zM633 756q-135 0 -228.5 -85t-93.5 -220q0 -134 92.5 -231t227.5 -97q133 0 224 94.5t91 228.5q0 135 -88.5 222.5t-224.5 87.5z" />
    <glyph glyph-name="seven" unicode="7" horiz-adv-x="1112" 
d="M289 0l549 1255h-760v158h942v-137l-547 -1276h-184z" />
    <glyph glyph-name="eight" unicode="8" horiz-adv-x="1193" 
d="M596 -31q-95 0 -182.5 26t-159.5 75t-115 129.5t-43 181.5q0 131 70 224.5t194 135.5q-102 45 -159.5 128.5t-57.5 191.5q0 88 39.5 162t104.5 121.5t146.5 73.5t166.5 26q67 0 132 -15.5t122.5 -48t101.5 -77t69.5 -106.5t25.5 -134q0 -108 -57.5 -192.5t-157.5 -127.5
q124 -42 193 -133.5t69 -222.5q0 -98 -43 -179t-114 -132.5t-160 -79t-185 -27.5zM598 659q-50 0 -97 -9.5t-90 -31t-74.5 -52t-50 -75.5t-18.5 -100q0 -87 49 -149.5t122 -90.5t159 -28q63 0 120 16.5t104.5 48t75.5 84.5t28 119q0 130 -95 199t-233 69zM598 1290
q-73 0 -136.5 -26t-106 -82t-42.5 -131q0 -108 86 -173t199 -65q72 0 135 26t105.5 82t42.5 130q0 67 -35 123q-81 116 -248 116z" />
    <glyph glyph-name="nine" unicode="9" horiz-adv-x="1185" 
d="M543 516q-129 0 -236.5 56.5t-172 161.5t-64.5 237q0 133 66.5 242t179 170t247.5 61q110 0 199.5 -41.5t149 -110.5t100 -161.5t58 -190.5t17.5 -201q0 -117 -22 -226.5t-70.5 -209t-119.5 -173.5t-176 -117.5t-232 -43.5q-186 0 -324 99l64 135q109 -80 254 -80
q100 0 180.5 35.5t132.5 94t86.5 139t49 166.5t14.5 181v21q-49 -118 -150 -181t-231 -63zM242 973q0 -131 90.5 -218t224.5 -87q132 0 226 85.5t94 217.5q0 134 -92 226.5t-228 92.5q-131 0 -223 -92t-92 -225z" />
    <glyph glyph-name="colon" unicode=":" horiz-adv-x="477" 
d="M117 940q0 52 34.5 87.5t86.5 35.5q66 0 106 -59q16 -29 16 -64q0 -32 -16 -61q-40 -62 -106 -62q-49 0 -85 36.5t-36 86.5zM238 -6q-49 0 -85 36.5t-36 86.5q0 52 34.5 87.5t86.5 35.5q65 0 106 -60q16 -29 16 -63q0 -33 -16 -62q-39 -61 -106 -61z" />
    <glyph glyph-name="semicolon" unicode=";" horiz-adv-x="477" 
d="M106 -268q80 39 129.5 99.5t49.5 141.5q0 41 -17 80q-21 -24 -59 -24q-43 0 -70 30q-30 30 -30 74q0 46 36 76.5t82 30.5q59 0 102 -41.5t62 -96.5t19 -112q0 -123 -70 -216.5t-188 -142.5zM238 817q-49 0 -85 36.5t-36 86.5q0 52 34.5 87.5t86.5 35.5q66 0 106 -59
q16 -29 16 -64q0 -32 -16 -61q-40 -62 -106 -62z" />
    <glyph glyph-name="less" unicode="&#x3c;" horiz-adv-x="1216" 
d="M213 496v135l733 336v-152l-569 -250l569 -248v-157z" />
    <glyph glyph-name="equal" unicode="=" horiz-adv-x="1216" 
d="M193 723v145h831v-145h-831zM1024 258h-831v145h831v-145z" />
    <glyph glyph-name="greater" unicode="&#x3e;" horiz-adv-x="1216" 
d="M840 561l-570 248v158l734 -336v-135l-734 -336v151z" />
    <glyph glyph-name="question" unicode="?" horiz-adv-x="1030" 
d="M41 1143q43 159 166 250.5t291 91.5q121 0 223.5 -49t166.5 -145.5t64 -221.5q0 -167 -109 -288t-280 -173v-221h-160v320q72 17 134 44.5t118 69.5t88.5 103.5t32.5 136.5q0 76 -35 141q-39 64 -103.5 97.5t-141.5 33.5q-112 0 -190.5 -61.5t-112.5 -171.5zM483 -6
q-47 0 -82.5 36t-35.5 83q0 48 34.5 83t83.5 35q48 0 83.5 -34.5t35.5 -83.5q0 -47 -36 -83t-83 -36z" />
    <glyph glyph-name="at" unicode="@" horiz-adv-x="2060" 
d="M106 524q0 196 74 368.5t201.5 294.5t304 192.5t375.5 70.5q187 0 351 -62.5t284 -174.5t189 -275t69 -356q0 -71 -11 -141t-38 -141t-67 -125t-103.5 -88t-141.5 -34q-99 0 -168.5 57.5t-93.5 153.5q-45 -102 -133.5 -156.5t-202.5 -54.5q-125 0 -225 67.5t-152.5 175.5
t-52.5 234q0 91 30.5 177.5t84 155t135 110t176.5 41.5q103 0 191.5 -50.5t134.5 -140.5l8 164h143v-620q0 -71 32.5 -124t98.5 -53q58 0 100 43t62.5 109t29.5 125.5t9 112.5q0 212 -93 378.5t-261.5 259.5t-384.5 93q-220 0 -402.5 -100.5t-289.5 -281.5t-107 -405
q0 -163 59 -307t162 -247.5t249 -163.5t312 -60q243 0 453 121l68 -123q-229 -137 -535 -137q-191 0 -361.5 69.5t-294.5 190.5t-196 292t-72 365zM1020 868q-134 0 -214.5 -98t-80.5 -238q0 -138 80 -235.5t215 -97.5t215 97t80 236q0 140 -78.5 238t-216.5 98z" />
    <glyph glyph-name="A" unicode="A" horiz-adv-x="1447" 
d="M47 0l586 1454h182l586 -1454h-184l-162 414h-668l-162 -414h-178zM721 1264l-272 -693h542z" />
    <glyph glyph-name="B" unicode="B" horiz-adv-x="1232" 
d="M160 1454h465q71 0 135 -13t121.5 -42t99 -71.5t66 -105.5t24.5 -139q0 -105 -50.5 -185t-146.5 -126q123 -39 191 -136t68 -228q0 -82 -27 -150t-74 -115t-110.5 -80t-135.5 -48t-151 -15h-475v1454zM332 154h299q67 0 123.5 14.5t103 44.5t72.5 82.5t26 122.5
q0 71 -25.5 124.5t-71.5 84t-102.5 45t-125.5 14.5h-299v-532zM332 836h284q126 0 202.5 55.5t76.5 175.5q0 119 -77 176t-202 57h-284v-464z" />
    <glyph glyph-name="C" unicode="C" horiz-adv-x="1478" 
d="M797 -41q-204 0 -363.5 104t-243.5 275t-84 377q0 150 48 289.5t134.5 249t218.5 175.5t288 66q191 0 350 -97.5t229 -271.5l-157 -59q-64 130 -171 200t-249 70q-119 0 -218.5 -54t-163 -142.5t-98 -198.5t-34.5 -225q0 -116 34 -222.5t97.5 -191.5t164 -135.5
t222.5 -50.5q287 0 430 270l158 -59q-75 -175 -235.5 -272t-356.5 -97z" />
    <glyph glyph-name="D" unicode="D" horiz-adv-x="1517" 
d="M160 1454h481q164 0 304 -47.5t244 -137.5t163 -228t59 -310q0 -222 -97 -388.5t-270.5 -254.5t-400.5 -88h-483v1454zM332 158h305q129 0 238.5 38t189.5 108.5t125 179t45 243.5q0 263 -163 416t-435 153h-305v-1138z" />
    <glyph glyph-name="E" unicode="E" horiz-adv-x="1148" 
d="M160 1454h837v-154h-665v-466h608v-156h-608v-522h686v-156h-858v1454z" />
    <glyph glyph-name="F" unicode="F" horiz-adv-x="1085" 
d="M160 1454h819v-158h-647v-499h588v-158h-588v-639h-172v1454z" />
    <glyph glyph-name="G" unicode="G" horiz-adv-x="1599" 
d="M106 719q0 124 32 239.5t94.5 212.5t148.5 170t200.5 113.5t243.5 40.5q191 0 348 -91.5t240 -260.5l-160 -66q-66 125 -176 192.5t-250 67.5q-164 0 -290 -86.5t-190 -225.5t-64 -304q0 -120 38 -229t106.5 -192.5t173.5 -133t230 -49.5q211 0 345.5 133t140.5 348h-445
v152h621v-117q0 -191 -82.5 -344.5t-235 -241.5t-348.5 -88q-157 0 -292.5 59t-229 160.5t-146.5 241.5t-53 299z" />
    <glyph glyph-name="H" unicode="H" horiz-adv-x="1470" 
d="M160 1454h172v-618h807v618h172v-1454h-172v678h-807v-678h-172v1454z" />
    <glyph glyph-name="I" unicode="I" horiz-adv-x="491" 
d="M160 0v1454h172v-1454h-172z" />
    <glyph glyph-name="J" unicode="J" horiz-adv-x="1075" 
d="M489 -31q-157 0 -276.5 90t-169.5 242l164 49q91 -223 282 -223q134 0 204.5 94.5t70.5 235.5v997h172v-995q0 -138 -49.5 -247t-152.5 -176t-245 -67z" />
    <glyph glyph-name="K" unicode="K" horiz-adv-x="1325" 
d="M160 1454h172v-657l667 657h226l-705 -686l778 -768h-247l-719 715v-715h-172v1454z" />
    <glyph glyph-name="L" unicode="L" horiz-adv-x="1075" 
d="M160 0v1454h172v-1296h647v-158h-819z" />
    <glyph glyph-name="M" unicode="M" horiz-adv-x="1703" 
d="M160 1454h162l532 -975l535 975h155v-1454h-168v1135l-456 -832h-136l-456 832v-1135h-168v1454z" />
    <glyph glyph-name="N" unicode="N" horiz-adv-x="1449" 
d="M160 1454h151l811 -1165v1165h168v-1454h-151l-811 1165v-1165h-168v1454z" />
    <glyph glyph-name="O" unicode="O" horiz-adv-x="1634" 
d="M106 725q0 124 31.5 239t93.5 211t147.5 168t199.5 112t243 40q159 0 293 -60t224 -164t140 -244.5t50 -299.5q0 -124 -31.5 -239t-93.5 -211t-147.5 -168t-199.5 -112t-243 -40q-209 0 -372 104t-249 278.5t-86 385.5zM283 727q0 -119 36 -228t101.5 -195t168.5 -137.5
t228 -51.5q123 0 225.5 50t169.5 134.5t103.5 195t36.5 232.5q0 119 -35.5 228t-101.5 194.5t-169 136.5t-229 51q-122 0 -224.5 -50t-169 -134.5t-103.5 -194.5t-37 -231z" />
    <glyph glyph-name="P" unicode="P" horiz-adv-x="1169" 
d="M160 0v1454h401q89 0 167 -16.5t145.5 -52t116 -88.5t76.5 -130t28 -172q0 -115 -45 -204t-123 -142.5t-176 -80.5t-211 -27q-98 0 -207 16v-557h-172zM332 1300v-589q94 -17 203 -17q78 0 144.5 16t121 50.5t86 95t31.5 141.5q0 149 -101 226t-258 77h-227z" />
    <glyph glyph-name="Q" unicode="Q" horiz-adv-x="1634" 
d="M106 725q0 124 31.5 239t93.5 211t147.5 168t199.5 112t243 40q159 0 293 -60t224 -164t140 -244.5t50 -299.5q0 -167 -57 -316.5t-171 -260.5l185 -228l-121 -98l-186 231q-169 -98 -365 -98q-209 0 -372 104t-249 278.5t-86 385.5zM283 727q0 -119 36 -228t101.5 -195
t168.5 -137.5t228 -51.5q142 0 258 67l-270 332l121 98l268 -331q158 178 158 446q0 119 -35.5 228t-101.5 194.5t-169 136.5t-229 51q-122 0 -224.5 -50t-169 -134.5t-103.5 -194.5t-37 -231z" />
    <glyph glyph-name="R" unicode="R" horiz-adv-x="1228" 
d="M160 0v1454h395q84 0 161 -15t147 -48.5t121 -83.5t81.5 -124t30.5 -165q0 -139 -75.5 -243.5t-207.5 -156.5l352 -618h-200l-316 573q-61 -6 -123 -6q-87 0 -194 17v-584h-172zM332 1300v-563q88 -16 200 -16q76 0 141.5 14.5t123 46t90.5 90t33 138.5q0 78 -30 135.5
t-82 90.5t-115 48.5t-138 15.5h-223z" />
    <glyph glyph-name="S" unicode="S" horiz-adv-x="1128" 
d="M74 297l162 51q38 -104 124.5 -164.5t198.5 -60.5q127 0 218 74.5t91 199.5q0 199 -266 258l-90 21q-401 93 -401 399q0 121 61 215.5t162.5 144.5t222.5 50q163 0 288.5 -86t174.5 -240l-162 -51q-39 104 -116.5 163.5t-184.5 59.5q-113 0 -192.5 -66t-79.5 -178
q0 -57 24 -101t68.5 -72.5t88.5 -45.5t101 -30l90 -21q176 -42 280.5 -141t104.5 -268q0 -197 -138.5 -318t-342.5 -121q-167 0 -301 86.5t-186 241.5z" />
    <glyph glyph-name="T" unicode="T" horiz-adv-x="1257" 
d="M98 1296v158h1061v-158h-444v-1296h-172v1296h-445z" />
    <glyph glyph-name="U" unicode="U" horiz-adv-x="1429" 
d="M139 1454h172v-885q0 -94 25.5 -175.5t74 -143.5t127 -97.5t177.5 -35.5q193 0 298 125.5t105 326.5v885h172v-891q0 -130 -39 -240.5t-111.5 -191.5t-182 -126.5t-244.5 -45.5q-265 0 -419.5 165.5t-154.5 438.5v891z" />
    <glyph glyph-name="V" unicode="V" horiz-adv-x="1398" 
d="M47 1454h189l469 -1253l466 1253h181l-561 -1454h-183z" />
    <glyph glyph-name="W" unicode="W" horiz-adv-x="2064" 
d="M70 1454h186l342 -1233l348 1233h176l353 -1233l342 1233h178l-436 -1454h-177l-350 1237l-348 -1237h-178z" />
    <glyph glyph-name="X" unicode="X" horiz-adv-x="1310" 
d="M29 0l530 768l-473 686h203l370 -559l369 559h197l-473 -686l530 -768h-213l-418 631l-418 -631h-204z" />
    <glyph glyph-name="Y" unicode="Y" horiz-adv-x="1269" 
d="M37 1454h196l404 -713l403 713h193l-512 -868v-586h-172v586z" />
    <glyph glyph-name="Z" unicode="Z" horiz-adv-x="1261" 
d="M96 0v131l805 1167h-774v156h993v-131l-805 -1167h850v-156h-1069z" />
    <glyph glyph-name="bracketleft" unicode="[" horiz-adv-x="696" 
d="M180 1604h434v-127h-288v-1627h288v-126h-434v1880z" />
    <glyph glyph-name="backslash" unicode="\" horiz-adv-x="870" 
d="M690 -215l-663 1757h153l664 -1757h-154z" />
    <glyph glyph-name="bracketright" unicode="]" horiz-adv-x="696" 
d="M371 1477h-289v127h434v-1880h-434v126h289v1627z" />
    <glyph glyph-name="asciicircum" unicode="^" horiz-adv-x="1216" 
d="M184 717l353 696h143l352 -696h-166l-260 524l-262 -524h-160z" />
    <glyph glyph-name="underscore" unicode="_" horiz-adv-x="1118" 
d="M61 -270v129h996v-129h-996z" />
    <glyph glyph-name="grave" unicode="`" horiz-adv-x="1173" 
d="M641 1227l-274 293h194l244 -293h-164z" />
    <glyph glyph-name="a" unicode="a" horiz-adv-x="1105" 
d="M92 297q0 87 37.5 154.5t100.5 107t138.5 59t159.5 19.5q71 0 149 -15.5t136 -43.5v77q0 126 -70.5 206.5t-195.5 80.5q-92 0 -165.5 -44.5t-107.5 -127.5l-143 49q42 126 160 196t258 70q193 0 307.5 -118.5t114.5 -315.5v-651h-144l-10 164q-49 -95 -142 -145t-204 -50
q-156 0 -267.5 87.5t-111.5 240.5zM258 303q0 -95 71.5 -146t172.5 -51q131 0 221 87t90 219v39q-140 57 -266 57q-52 0 -100 -10.5t-92 -33t-70.5 -64t-26.5 -97.5z" />
    <glyph glyph-name="b" unicode="b" horiz-adv-x="1273" 
d="M143 1520h164v-650q61 105 160 161t221 56q110 0 204.5 -46t157.5 -123.5t98.5 -178t35.5 -209.5q0 -146 -60 -273t-177 -207.5t-267 -80.5q-121 0 -221 59t-160 165l-8 -193h-148v1520zM659 938q-108 0 -191 -58.5t-124 -151t-41 -200.5q0 -183 103 -292q47 -57 113 -87
t140 -30q162 0 259.5 120t97.5 289q0 177 -101 295q-109 115 -256 115z" />
    <glyph glyph-name="c" unicode="c" horiz-adv-x="1118" 
d="M598 -31q-148 0 -265.5 75.5t-180 200.5t-62.5 275q0 111 37 213t102.5 181t163.5 126t213 47q143 0 255 -74.5t167 -207.5l-149 -51q-45 85 -116 134.5t-163 49.5q-80 0 -146 -36.5t-108 -96t-65 -133t-23 -150.5q0 -118 53 -224t152 -148q64 -31 135 -31
q95 0 174.5 48.5t118.5 133.5l149 -51q-53 -132 -174.5 -206.5t-267.5 -74.5z" />
    <glyph glyph-name="d" unicode="d" horiz-adv-x="1273" 
d="M586 -31q-145 0 -260.5 79.5t-175.5 205.5t-60 272t60 273t177 207.5t267 80.5q119 0 216 -54t157 -156v643h163v-1520h-147l-8 201q-62 -113 -162 -172.5t-227 -59.5zM258 528q0 -184 102 -292q47 -56 113.5 -86.5t140.5 -30.5q162 0 259.5 120t97.5 289q0 177 -101 295
q-109 115 -256 115q-108 0 -191 -58.5t-124 -151t-41 -200.5z" />
    <glyph glyph-name="e" unicode="e" horiz-adv-x="1171" 
d="M90 526q0 110 35.5 211t99.5 178.5t160.5 123.5t210.5 46q143 0 254.5 -70t171 -188.5t59.5 -263.5v-67h-821q6 -79 31 -146.5t68.5 -120.5t109.5 -83.5t149 -30.5q199 0 304 166l139 -64q-63 -120 -180 -184t-258 -64q-235 0 -384 158.5t-149 398.5zM596 946
q-131 0 -218 -92.5t-110 -230.5h641q-13 137 -95.5 230t-217.5 93z" />
    <glyph glyph-name="f" unicode="f" horiz-adv-x="774" 
d="M33 1057h194v98q0 109 38 194.5t118 138t192 52.5q110 0 199 -53l-47 -127q-72 37 -141 37q-54 0 -93.5 -19.5t-61 -55t-31 -77.5t-9.5 -94v-94h334v-139h-334v-918h-164v918h-194v139z" />
    <glyph glyph-name="g" unicode="g" horiz-adv-x="1261" 
d="M90 547q0 142 60.5 264.5t176 199t261.5 76.5q119 0 219 -56t156 -159l8 185h147v-967q0 -154 -59 -275t-176.5 -192.5t-276.5 -71.5q-148 0 -266 62.5t-193 187.5l138 70q120 -178 321 -178q168 0 258 108.5t90 282.5v135q-60 -101 -157.5 -155t-216.5 -54
q-142 0 -255.5 75t-174 197t-60.5 265zM258 549q0 -104 40.5 -191.5t121.5 -142.5t188 -55q158 0 254 112.5t96 276.5q0 163 -94 276t-256 113q-158 0 -254 -112.5t-96 -276.5z" />
    <glyph glyph-name="h" unicode="h" horiz-adv-x="1173" 
d="M143 0v1520h164v-617q50 90 139 137t195 47q99 0 176.5 -37t124.5 -102t71.5 -148.5t24.5 -181.5v-618h-164v608q0 54 -8.5 101t-28 90t-49.5 73t-75.5 48t-102.5 18q-135 0 -219 -87t-84 -224v-627h-164z" />
    <glyph glyph-name="i" unicode="i" horiz-adv-x="450" 
d="M307 0h-164v1057h164v-1057zM225 1253q-44 0 -78 34.5t-34 78.5q0 46 33 79.5t79 33.5q48 0 80.5 -32t32.5 -81q0 -46 -33.5 -79.5t-79.5 -33.5z" />
    <glyph glyph-name="j" unicode="j" horiz-adv-x="460" 
d="M-154 -391l52 127q3 -1 19.5 -9t27.5 -12q24 -8 59 -8q75 0 112.5 53.5t37.5 130.5v1166h163v-1170q0 -139 -79.5 -232t-219.5 -93q-99 0 -172 47zM123 1366q0 46 33.5 79.5t79.5 33.5q48 0 80 -32t32 -81q0 -46 -33 -79.5t-79 -33.5q-44 0 -78.5 34.5t-34.5 78.5z" />
    <glyph glyph-name="k" unicode="k" horiz-adv-x="1083" 
d="M143 1520h164v-906l500 443h211l-541 -473l590 -584h-225l-535 541v-541h-164v1520z" />
    <glyph glyph-name="l" unicode="l" horiz-adv-x="450" 
d="M143 0v1520h164v-1520h-164z" />
    <glyph glyph-name="m" unicode="m" horiz-adv-x="1847" 
d="M143 1057h148l8 -162q49 94 134.5 143t193.5 49q119 0 207 -61t131 -172q43 110 141 171.5t221 61.5q98 0 173 -36t120.5 -100t68.5 -145.5t23 -178.5v-627h-164v616q0 66 -12 121t-39 101.5t-77 73t-120 26.5q-126 0 -208 -87t-82 -216v-635h-164v616q0 52 -8 98
t-26.5 88t-46.5 71.5t-72 47t-99 17.5q-127 0 -207 -86.5t-80 -216.5v-635h-164v1057z" />
    <glyph glyph-name="n" unicode="n" horiz-adv-x="1173" 
d="M143 1057h148l8 -168q50 95 141.5 146.5t200.5 51.5q99 0 176.5 -37t124.5 -102t71.5 -148.5t24.5 -181.5v-618h-164v608q0 54 -8.5 101t-28 90t-49.5 73t-75.5 48t-102.5 18q-135 0 -219 -87t-84 -224v-627h-164v1057z" />
    <glyph glyph-name="o" unicode="o" horiz-adv-x="1228" 
d="M612 -31q-152 0 -272 75.5t-185 203t-65 280.5q0 151 64.5 278t186 204t275.5 77q153 0 273.5 -75t185 -202t64.5 -282q0 -113 -38 -215t-105.5 -178t-167 -121t-216.5 -45zM258 528q0 -184 102 -292q47 -56 113.5 -86.5t140.5 -30.5q162 0 259.5 120t97.5 289
q0 177 -101 295q-109 115 -256 115q-108 0 -191 -58.5t-124 -151t-41 -200.5z" />
    <glyph glyph-name="p" unicode="p" horiz-adv-x="1273" 
d="M143 1057h148l8 -201q60 110 161.5 170.5t227.5 60.5q110 0 204.5 -46t157.5 -123.5t98.5 -178t35.5 -209.5q0 -146 -60 -273t-177 -207.5t-267 -80.5q-120 0 -217.5 54.5t-155.5 156.5v-598h-164v1475zM303 528q0 -183 103 -292q47 -57 113 -87t140 -30q162 0 259.5 120
t97.5 289q0 177 -101 295q-109 115 -256 115q-108 0 -191 -58.5t-124 -151t-41 -200.5z" />
    <glyph glyph-name="q" unicode="q" horiz-adv-x="1273" 
d="M586 -31q-145 0 -260.5 79.5t-175.5 205.5t-60 272t60 273t177 207.5t267 80.5q121 0 221 -58.5t160 -164.5l8 193h147v-1475h-163v604q-60 -104 -160 -160.5t-221 -56.5zM258 528q0 -184 102 -292q47 -56 113.5 -86.5t140.5 -30.5q162 0 259.5 120t97.5 289
q0 177 -101 295q-109 115 -256 115q-108 0 -191 -58.5t-124 -151t-41 -200.5z" />
    <glyph glyph-name="r" unicode="r" horiz-adv-x="768" 
d="M143 1057h148l10 -197q41 100 117.5 155.5t181.5 55.5q28 0 64 -4q30 -7 47 -14l-21 -156q-36 14 -96 14q-139 0 -213 -102t-74 -248v-561h-164v1057z" />
    <glyph glyph-name="s" unicode="s" horiz-adv-x="946" 
d="M74 223l147 53q39 -77 105 -120t151 -43q88 0 158 45t70 129q0 132 -193 172l-80 16q-328 67 -328 297q0 149 108.5 232t264.5 83q133 0 233.5 -64t145.5 -187l-147 -50q-34 75 -93 119q-62 41 -141 41q-80 0 -143.5 -40.5t-63.5 -117.5q0 -33 14 -59.5t34 -43.5
t50.5 -30t56.5 -19.5t58 -12.5l80 -17q65 -13 118.5 -35.5t98 -58t69.5 -89t25 -120.5q0 -79 -33 -143.5t-88.5 -105.5t-126 -63t-147.5 -22q-135 0 -244 66t-159 188z" />
    <glyph glyph-name="t" unicode="t" horiz-adv-x="835" 
d="M33 1057h194v354h164v-354h332v-139h-332v-603q0 -87 39 -142.5t123 -55.5q92 0 166 49l49 -127q-100 -70 -229 -70q-151 0 -231.5 91t-80.5 247v611h-194v139z" />
    <glyph glyph-name="u" unicode="u" horiz-adv-x="1155" 
d="M135 1057h164v-600q0 -67 16.5 -126.5t49 -107.5t87.5 -76t126 -28q95 0 159 47.5t91.5 121.5t27.5 169v600h164v-598q0 -138 -49.5 -247t-152.5 -176t-245 -67q-210 0 -324 135.5t-114 354.5v598z" />
    <glyph glyph-name="v" unicode="v" horiz-adv-x="1071" 
d="M37 1057h180l322 -881l321 881h174l-413 -1057h-170z" />
    <glyph glyph-name="w" unicode="w" horiz-adv-x="1632" 
d="M393 0l-356 1057h172l264 -856l272 856h148l270 -856l264 856h168l-356 -1057h-158l-264 846l-266 -846h-158z" />
    <glyph glyph-name="x" unicode="x" horiz-adv-x="1067" 
d="M31 0l407 557l-362 500h194l269 -395l268 395h184l-362 -500l407 -557h-200l-308 449l-303 -449h-194z" />
    <glyph glyph-name="y" unicode="y" horiz-adv-x="1071" 
d="M37 1057h180l338 -869l305 869h174l-471 -1223q-101 -272 -330 -272q-84 0 -155 39l47 131q48 -25 100 -25q130 0 195 166l55 137z" />
    <glyph glyph-name="z" unicode="z" horiz-adv-x="1015" 
d="M90 0v115l598 803h-584v139h787v-113l-602 -805h637v-139h-836z" />
    <glyph glyph-name="braceleft" unicode="{" horiz-adv-x="708" 
d="M61 602v123h31q75 0 116.5 47t41.5 123q0 57 -8 117q-23 176 -23 280q0 152 91 232t249 80h68v-127h-66q-95 0 -143.5 -52t-48.5 -149q0 -66 8 -123q22 -150 22 -246q0 -48 -13 -96t-44.5 -90t-75.5 -57q66 -23 99.5 -94t33.5 -150q0 -97 -22 -244q-8 -57 -8 -125
q0 -97 48.5 -149t143.5 -52h66v-126h-68q-155 0 -247.5 78t-92.5 233q0 104 23 280q8 57 8 117q0 76 -41.5 123t-116.5 47h-31z" />
    <glyph glyph-name="bar" unicode="|" horiz-adv-x="505" 
d="M180 -215v1757h146v-1757h-146z" />
    <glyph glyph-name="braceright" unicode="}" horiz-adv-x="708" 
d="M150 -276h-68v126h65q95 0 144 52t49 149q0 68 -8 125q-23 153 -23 244q0 49 13 97t44.5 90t75.5 57q-43 15 -74.5 57.5t-45 90.5t-13.5 95q0 93 23 246q8 57 8 123q0 97 -49 149t-144 52h-65v127h68q155 0 247 -78.5t92 -233.5q0 -111 -22 -280q-8 -57 -8 -117
q0 -76 41.5 -123t115.5 -47h31v-123h-31q-74 0 -115.5 -47t-41.5 -123q0 -58 8 -115q22 -172 22 -282q0 -152 -90.5 -231.5t-248.5 -79.5z" />
    <glyph glyph-name="asciitilde" unicode="~" horiz-adv-x="1216" 
d="M156 416q10 59 29 110.5t50 98.5t80 74.5t111 27.5q49 0 92 -16q58 -28 141 -93q30 -27 62 -43q30 -18 63 -18q37 0 65.5 26.5t42 58.5t21.5 71h148q-10 -59 -29.5 -110.5t-50.5 -99t-80 -75t-110 -27.5q-50 0 -93 19q-38 14 -75 43q-36 25 -66 49q-32 26 -61 43
q-32 16 -64 16q-37 0 -65.5 -26.5t-42 -58t-21.5 -70.5h-147z" />
    <glyph glyph-name="uni00A0" unicode="&#xa0;" horiz-adv-x="448" 
 />
    <glyph glyph-name="exclamdown" unicode="&#xa1;" horiz-adv-x="475" 
d="M326 -397h-176l8 1067h159zM119 944q0 48 35 83.5t84 35.5q48 0 83 -35t35 -84q0 -47 -35.5 -83t-82.5 -36t-83 36t-36 83z" />
    <glyph glyph-name="cent" unicode="&#xa2;" horiz-adv-x="1216" 
d="M580 -18q-202 26 -322.5 181t-120.5 365q0 134 51 254t153.5 205t238.5 103v243h118v-239q177 -18 295 -144q57 -67 82 -137l-149 -51q-79 152 -228 184v-819q79 12 143.5 60.5t96.5 121.5l149 -51q-46 -118 -151.5 -191t-237.5 -87v-265h-118v267zM305 530
q0 -90 29 -172.5t93 -147t153 -81.5v813q-89 -21 -153 -86.5t-93 -149.5t-29 -176z" />
    <glyph glyph-name="sterling" unicode="&#xa3;" horiz-adv-x="1216" 
d="M72 752h184l20 241q6 94 36 174.5t81.5 143t131 98t177.5 35.5q165 0 272 -93t146 -257l-159 -39q-27 109 -90.5 172t-170.5 63q-62 0 -110.5 -24.5t-78.5 -67t-46.5 -94t-20.5 -111.5l-20 -241h414v-140h-424l-39 -454h747v-158h-1048v158h133l39 454h-174v140z" />
    <glyph glyph-name="currency" unicode="&#xa4;" horiz-adv-x="1216" 
d="M219 242l-98 98l158 164q-72 113 -72 239q0 128 72 240l-158 164l98 98l156 -162q109 74 233 74q125 0 234 -74l155 162l99 -98l-158 -164q72 -112 72 -240q0 -126 -72 -239l158 -164l-99 -98l-155 161q-106 -73 -234 -73q-127 0 -233 73zM608 1020q-113 0 -181.5 -80
t-68.5 -197q0 -82 33 -141q31 -63 88.5 -99t128.5 -36q114 0 182 79.5t68 196.5q0 77 -31 144q-74 133 -219 133z" />
    <glyph glyph-name="yen" unicode="&#xa5;" horiz-adv-x="1216" 
d="M66 1413h190l354 -678l357 678h184l-399 -711h247v-120h-307v-199h307v-121h-307v-262h-168v262h-307v121h307v199h-307v120h248z" />
    <glyph glyph-name="section" unicode="&#xa7;" horiz-adv-x="1011" 
d="M498 -195q-139 0 -255 68t-167 193l141 53q94 -174 287 -174q59 0 111.5 16.5t91 58.5t38.5 103q0 80 -65.5 127t-153.5 59l-98 17q-66 12 -123 35t-106.5 59.5t-78 93t-28.5 125.5q0 97 52.5 172.5t144.5 112.5q-170 83 -170 247q0 78 33 139.5t88.5 98.5t124 56.5
t143.5 19.5q138 0 245.5 -67t153.5 -193l-143 -49q-83 170 -262 170q-86 0 -153.5 -41t-67.5 -121q0 -42 21 -74.5t57 -52.5t71.5 -31.5t75.5 -17.5l98 -17q69 -12 126 -34t104.5 -58.5t74.5 -93t27 -127.5q0 -99 -55.5 -176t-149.5 -111q178 -82 178 -256q0 -79 -36 -143.5
t-95 -104t-131.5 -61t-148.5 -21.5zM451 862q-84 0 -141.5 -55.5t-57.5 -140.5q0 -58 32.5 -101t77.5 -64t103 -32l57 -10q27 -6 53 -6q84 0 141.5 56t57.5 140q0 88 -57.5 132.5t-155.5 64.5l-57 10q-27 6 -53 6z" />
    <glyph glyph-name="dieresis" unicode="&#xa8;" horiz-adv-x="1173" 
d="M672 1366q0 46 31 76.5t77 30.5t77.5 -30.5t31.5 -76.5q0 -45 -31.5 -75.5t-77.5 -30.5t-77 30t-31 76zM391 1260q-46 0 -77 30t-31 76t31 76.5t77 30.5t77.5 -30.5t31.5 -76.5q0 -45 -31.5 -75.5t-77.5 -30.5z" />
    <glyph glyph-name="copyright" unicode="&#xa9;" horiz-adv-x="1773" 
d="M117 727q0 213 100 389t277 277.5t393 101.5q214 0 390 -99t278 -275.5t102 -393.5q0 -214 -99.5 -390t-276.5 -278t-394 -102q-213 0 -389.5 100t-278.5 277t-102 393zM887 1372q-130 0 -248 -51t-204 -137.5t-136.5 -206t-50.5 -250.5q0 -173 84.5 -321.5t232.5 -237
t322 -88.5q130 0 248.5 51.5t204 138t136 206.5t50.5 251q0 174 -84.5 322t-231.5 235.5t-323 87.5zM897 305q-173 0 -283 124t-110 302q0 112 47.5 210t139 160t206.5 62q118 0 204.5 -58.5t129.5 -168.5l-129 -43q-75 139 -205 139q-76 0 -134 -45t-86 -112.5t-28 -143.5
q0 -89 33 -151q31 -67 87 -105.5t128 -38.5q68 0 125.5 38.5t87.5 100.5l129 -43q-43 -104 -135.5 -165.5t-206.5 -61.5z" />
    <glyph glyph-name="ordfeminine" unicode="&#xaa;" horiz-adv-x="768" 
d="M55 885q0 79 45.5 134t111.5 78t144 23q118 0 193 -41v51q0 81 -43.5 132t-124.5 51q-128 0 -172 -107l-127 33q34 94 115.5 144.5t185.5 50.5q137 0 222 -85.5t85 -224.5v-456h-129l-6 104q-34 -59 -97 -90t-136 -31q-76 0 -136 31q-61 28 -96 81.5t-35 121.5zM379 1016
q-73 0 -126.5 -30t-53.5 -97q0 -59 44.5 -92t106.5 -33q87 0 143 56t56 143v18q-93 35 -170 35z" />
    <glyph glyph-name="guillemotleft" unicode="&#xab;" horiz-adv-x="962" 
d="M725 199l-285 385l285 385h166l-279 -385l279 -385h-166zM41 584l285 385h166l-279 -385l279 -385h-166z" />
    <glyph glyph-name="logicalnot" unicode="&#xac;" horiz-adv-x="1216" 
d="M174 580v137h827v-504h-145v367h-682z" />
    <glyph glyph-name="registered" unicode="&#xae;" horiz-adv-x="1097" 
d="M82 1014q0 195 134.5 328t332.5 133q197 0 332 -131.5t135 -329.5q0 -195 -134.5 -329t-332.5 -134q-128 0 -235 60t-169.5 167t-62.5 236zM549 1386q-154 0 -262.5 -108t-108.5 -264q0 -155 107 -265t264 -110q156 0 263.5 108.5t107.5 266.5q0 156 -107 264t-264 108z
M387 772v492h162q83 0 138.5 -38.5t55.5 -117.5q0 -92 -86 -139l113 -197h-106l-91 170h-32q-15 0 -25 2q-23 0 -33 2v-174h-96zM543 1182h-60v-154q36 -4 58 -4q43 0 73.5 19.5t30.5 60.5t-29 59.5t-73 18.5z" />
    <glyph glyph-name="macron" unicode="&#xaf;" horiz-adv-x="1173" 
d="M287 1251v131h598v-131h-598z" />
    <glyph glyph-name="degree" unicode="&#xb0;" horiz-adv-x="745" 
d="M373 905q-129 0 -223.5 94.5t-94.5 223.5t94 223t224 94q131 0 224 -93t93 -224q0 -129 -93.5 -223.5t-223.5 -94.5zM195 1223q0 -53 24 -97q20 -41 64 -67q41 -27 90 -27t90 27q42 25 65 67q23 48 23 97q0 48 -23 96q-23 42 -65 70q-41 24 -90 24t-90 -24
q-45 -30 -64 -70q-24 -43 -24 -96z" />
    <glyph glyph-name="plusminus" unicode="&#xb1;" horiz-adv-x="1216" 
d="M535 625h-349v137h349v336h145v-336h350v-137h-350v-346h-145v346zM207 0v145h803v-145h-803z" />
    <glyph glyph-name="acute" unicode="&#xb4;" horiz-adv-x="1173" 
d="M367 1227l243 293h195l-275 -293h-163z" />
    <glyph glyph-name="paragraph" unicode="&#xb6;" horiz-adv-x="1191" 
d="M96 997q0 113 42 201.5t115 143.5t168.5 83.5t207.5 28.5h90v-1647h-133v736q-100 6 -187.5 37.5t-155.5 86.5t-107.5 140t-39.5 190zM1018 -188h-133v1642h133v-1642z" />
    <glyph glyph-name="periodcentered" unicode="&#xb7;" horiz-adv-x="477" 
d="M117 565q0 52 34.5 87.5t86.5 35.5q66 0 106 -59q16 -29 16 -64q0 -32 -16 -61q-40 -62 -106 -62q-49 0 -85 36.5t-36 86.5z" />
    <glyph glyph-name="cedilla" unicode="&#xb8;" horiz-adv-x="1173" 
d="M545 -455q-84 0 -154 31l31 109q65 -21 113 -21q47 0 75 19q27 21 27 53q0 80 -150 80l60 207h115l-35 -127q64 -13 109.5 -58t45.5 -108q0 -89 -71.5 -137t-165.5 -48z" />
    <glyph glyph-name="ordmasculine" unicode="&#xba;" horiz-adv-x="860" 
d="M281 682q-106 42 -167 142t-61 218q0 165 105.5 278.5t271.5 113.5q76 0 152 -29q109 -50 167 -145.5t58 -217.5q0 -165 -105.5 -278t-271.5 -113q-79 0 -149 31zM430 1300q-103 0 -165 -75.5t-62 -182.5q0 -106 61.5 -182t165.5 -76q103 0 165 75.5t62 182.5t-61 182.5
t-166 75.5z" />
    <glyph glyph-name="guillemotright" unicode="&#xbb;" horiz-adv-x="962" 
d="M750 584l-279 385h166l285 -385l-285 -385h-166zM72 199l278 385l-278 385h166l284 -385l-284 -385h-166z" />
    <glyph glyph-name="onequarter" unicode="&#xbc;" horiz-adv-x="1642" 
d="M971 272l354 506h148v-499h92v-109h-92v-170h-132v170h-370v102zM469 0h-141l891 1413h141zM131 1282l248 131h117v-778h-136v637l-184 -98zM1102 279h239v342z" />
    <glyph glyph-name="onehalf" unicode="&#xbd;" horiz-adv-x="1642" 
d="M1133 559l-123 25q23 99 97.5 156t178.5 57q107 0 181.5 -67t74.5 -173q0 -72 -41 -143q-29 -50 -86.5 -110.5t-94 -91.5t-110.5 -91h346v-121h-542v100q28 24 96 80q8 7 40 34t48 42q124 104 176 190q33 50 33 101q0 59 -35 96t-94 37q-55 0 -93 -33t-52 -88zM430 0
h-141l891 1413h141zM176 1174l-45 108l248 131h117v-778h-136v637z" />
    <glyph glyph-name="threequarters" unicode="&#xbe;" horiz-adv-x="1642" 
d="M971 170v102l354 506h148v-499h92v-109h-92v-170h-132v170h-370zM354 616q-104 0 -180.5 52.5t-105.5 150.5l125 25q15 -54 58 -82.5t101 -28.5q62 0 106 32.5t44 92.5q0 61 -42 91t-106 30h-88v117h80q59 0 98 28t39 84q0 48 -34 78q-40 29 -95 29q-111 0 -145 -105
l-125 25q26 94 100.5 145.5t175.5 51.5q104 0 181 -56t77 -157q0 -122 -116 -177q61 -20 100 -71q35 -53 35 -119q0 -108 -85 -172t-198 -64zM334 0l891 1413h141l-891 -1413h-141zM1341 621l-239 -342h239v342z" />
    <glyph glyph-name="questiondown" unicode="&#xbf;" horiz-adv-x="970" 
d="M514 -428q-121 0 -224 49.5t-167 146t-64 220.5q0 169 109 288.5t281 172.5v221h159v-320q-72 -17 -134 -44.5t-118 -69.5t-88 -103.5t-32 -136.5q0 -121 79 -196.5t201 -75.5q112 0 190.5 61.5t112.5 171.5l152 -43q-44 -161 -165.5 -251.5t-291.5 -90.5zM410 944
q0 48 34.5 83.5t83.5 35.5q48 0 83.5 -35t35.5 -84q0 -47 -36 -83t-83 -36t-82.5 36t-35.5 83z" />
    <glyph glyph-name="Agrave" unicode="&#xc0;" horiz-adv-x="1447" 
d="M47 0l586 1454h182l586 -1454h-184l-162 414h-668l-162 -414h-178zM449 571h542l-270 693zM399 1864h222l278 -248h-184z" />
    <glyph glyph-name="Aacute" unicode="&#xc1;" horiz-adv-x="1447" 
d="M47 0l586 1454h182l586 -1454h-184l-162 414h-668l-162 -414h-178zM449 571h542l-270 693zM731 1616h-184l278 248h222z" />
    <glyph glyph-name="Acircumflex" unicode="&#xc2;" horiz-adv-x="1447" 
d="M47 0l586 1454h182l586 -1454h-184l-162 414h-668l-162 -414h-178zM721 1264l-272 -693h542zM528 1616h-180l291 248h170l291 -248h-185l-192 145z" />
    <glyph glyph-name="Atilde" unicode="&#xc3;" horiz-adv-x="1447" 
d="M47 0l586 1454h182l586 -1454h-184l-162 414h-668l-162 -414h-178zM721 1264l-272 -693h542zM358 1624q13 98 70.5 164.5t151.5 66.5q75 0 157 -53q40 -28 62 -39q32 -16 61 -16q37 0 64 27q28 25 37 71h129q-13 -99 -69 -165t-151 -66q-80 0 -157 55q-46 28 -64 37
q-32 16 -61 16q-37 0 -64 -24q-28 -28 -37 -74h-129z" />
    <glyph glyph-name="Adieresis" unicode="&#xc4;" horiz-adv-x="1447" 
d="M47 0l586 1454h182l586 -1454h-184l-162 414h-668l-162 -414h-178zM721 1264l-272 -693h542zM424 1649q-33 29 -33 75t32.5 77.5t78.5 31.5q44 0 80 -31q30 -34 30 -78q0 -46 -32 -77t-78 -31q-49 0 -78 33zM836 1724q0 46 32 77.5t78 31.5q44 0 80 -31q31 -36 31 -78
q0 -45 -32.5 -76.5t-78.5 -31.5q-49 0 -78 33q-32 28 -32 75z" />
    <glyph glyph-name="Aring" unicode="&#xc5;" horiz-adv-x="1447" 
d="M47 0l586 1454h182l586 -1454h-184l-162 414h-668l-162 -414h-178zM449 571h542l-270 693zM516 1739q0 84 61 142t146 58q86 0 146.5 -57t60.5 -143q0 -84 -61 -142.5t-146 -58.5q-83 0 -145 59.5t-62 141.5zM627 1739q0 -40 28.5 -69.5t67.5 -29.5t67.5 29.5t28.5 69.5
t-28 69t-68 29t-68 -29t-28 -69z" />
    <glyph glyph-name="AE" unicode="&#xc6;" horiz-adv-x="2045" 
d="M242 0h-195l373 567v4h4l580 883h890v-154h-645v-466h588v-156h-588v-522h666v-156h-838v414h-569zM608 571h469v729z" />
    <glyph glyph-name="Ccedilla" unicode="&#xc7;" horiz-adv-x="1478" 
d="M739 -39q-144 11 -264 77t-200 168t-124.5 233.5t-44.5 275.5q0 150 48 289.5t134.5 249t218.5 175.5t288 66q191 0 350 -97.5t229 -271.5l-157 -59q-64 130 -171 200t-249 70q-119 0 -218.5 -54t-163 -142.5t-98 -198.5t-34.5 -225q0 -116 34 -222.5t97.5 -191.5
t164 -135.5t222.5 -50.5q287 0 430 270l158 -59q-69 -159 -209.5 -254t-319.5 -113l-22 -78q64 -13 109.5 -58t45.5 -108q0 -108 -114 -163q-61 -23 -125 -23q-91 0 -164 31l31 112q34 -12 65 -18q36 -4 55 -4q46 0 76 18q29 23 29 54q0 79 -152 79z" />
    <glyph glyph-name="Egrave" unicode="&#xc8;" horiz-adv-x="1148" 
d="M160 1454h837v-154h-665v-466h608v-156h-608v-522h686v-156h-858v1454zM254 1864h221l279 -248h-185z" />
    <glyph glyph-name="Eacute" unicode="&#xc9;" horiz-adv-x="1148" 
d="M160 0v1454h837v-154h-665v-466h608v-156h-608v-522h686v-156h-858zM586 1616h-185l279 248h221z" />
    <glyph glyph-name="Ecircumflex" unicode="&#xca;" horiz-adv-x="1148" 
d="M160 1454h837v-154h-665v-466h608v-156h-608v-522h686v-156h-858v1454zM383 1616h-180l291 248h170l290 -248h-184l-192 145z" />
    <glyph glyph-name="Edieresis" unicode="&#xcb;" horiz-adv-x="1148" 
d="M160 1454h837v-154h-665v-466h608v-156h-608v-522h686v-156h-858v1454zM279 1649q-33 29 -33 75t32 77.5t78 31.5q44 0 80 -31q31 -36 31 -78q0 -45 -32.5 -76.5t-78.5 -31.5q-48 0 -77 33zM690 1724q0 46 32.5 77.5t78.5 31.5q44 0 80 -31q30 -34 30 -78q0 -46 -32 -77
t-78 -31q-49 0 -78 33q-33 29 -33 75z" />
    <glyph glyph-name="Igrave" unicode="&#xcc;" horiz-adv-x="491" 
d="M160 0v1454h172v-1454h-172zM236 1616l-316 248h221l279 -248h-184z" />
    <glyph glyph-name="Iacute" unicode="&#xcd;" horiz-adv-x="491" 
d="M160 0v1454h172v-1454h-172zM68 1616l278 248h221l-315 -248h-184z" />
    <glyph glyph-name="Icircumflex" unicode="&#xce;" horiz-adv-x="491" 
d="M332 0h-172v1454h172v-1454zM49 1616h-180l291 248h170l291 -248h-185l-192 145z" />
    <glyph glyph-name="Idieresis" unicode="&#xcf;" horiz-adv-x="491" 
d="M160 1454h172v-1454h-172v1454zM23 1616q-46 0 -78.5 31.5t-32.5 76.5q0 42 31 78q36 31 80 31q43 0 79 -31q31 -36 31 -78q0 -46 -32 -77t-78 -31zM356 1724q0 46 32.5 77.5t78.5 31.5q44 0 80 -31q31 -36 31 -78q0 -45 -32.5 -76.5t-78.5 -31.5q-49 0 -78 33
q-33 29 -33 75z" />
    <glyph glyph-name="Eth" unicode="&#xd0;" horiz-adv-x="1538" 
d="M-2 825h182v629h482q164 0 304 -47.5t244 -137.5t163 -228t59 -310q0 -222 -97 -388.5t-270.5 -254.5t-400.5 -88h-484v688h-182v137zM657 1296h-305v-471h346v-137h-346v-530h305q129 0 238.5 38t189.5 108.5t125 179t45 243.5q0 263 -163 416t-435 153z" />
    <glyph glyph-name="Ntilde" unicode="&#xd1;" horiz-adv-x="1449" 
d="M160 0v1454h151l811 -1165v1165h168v-1454h-151l-811 1165v-1165h-168zM358 1624q13 98 70.5 164.5t151.5 66.5q75 0 157 -53q40 -28 62 -39q32 -16 61 -16q37 0 64 27q28 25 37 71h129q-13 -99 -69 -165t-151 -66q-80 0 -157 55q-46 28 -64 37q-32 16 -61 16
q-37 0 -64 -24q-28 -28 -37 -74h-129z" />
    <glyph glyph-name="Ograve" unicode="&#xd2;" horiz-adv-x="1634" 
d="M106 725q0 124 31.5 239t93.5 211t147.5 168t199.5 112t243 40q159 0 293 -60t224 -164t140 -244.5t50 -299.5q0 -124 -31.5 -239t-93.5 -211t-147.5 -168t-199.5 -112t-243 -40q-209 0 -372 104t-249 278.5t-86 385.5zM817 1337q-122 0 -224.5 -50t-169 -134.5
t-103.5 -194.5t-37 -231q0 -119 36 -228t101.5 -195t168.5 -137.5t228 -51.5q123 0 225.5 50t169.5 134.5t103.5 195t36.5 232.5q0 119 -35.5 228t-101.5 194.5t-169 136.5t-229 51zM494 1864h221l278 -248h-184z" />
    <glyph glyph-name="Oacute" unicode="&#xd3;" horiz-adv-x="1634" 
d="M106 725q0 124 31.5 239t93.5 211t147.5 168t199.5 112t243 40q159 0 293 -60t224 -164t140 -244.5t50 -299.5q0 -124 -31.5 -239t-93.5 -211t-147.5 -168t-199.5 -112t-243 -40q-209 0 -372 104t-249 278.5t-86 385.5zM817 1337q-122 0 -224.5 -50t-169 -134.5
t-103.5 -194.5t-37 -231q0 -119 36 -228t101.5 -195t168.5 -137.5t228 -51.5q123 0 225.5 50t169.5 134.5t103.5 195t36.5 232.5q0 119 -35.5 228t-101.5 194.5t-169 136.5t-229 51zM641 1616l279 248h221l-316 -248h-184z" />
    <glyph glyph-name="Ocircumflex" unicode="&#xd4;" horiz-adv-x="1634" 
d="M106 725q0 124 31.5 239t93.5 211t147.5 168t199.5 112t243 40q159 0 293 -60t224 -164t140 -244.5t50 -299.5q0 -124 -31.5 -239t-93.5 -211t-147.5 -168t-199.5 -112t-243 -40q-209 0 -372 104t-249 278.5t-86 385.5zM283 727q0 -119 36 -228t101.5 -195t168.5 -137.5
t228 -51.5q123 0 225.5 50t169.5 134.5t103.5 195t36.5 232.5q0 119 -35.5 228t-101.5 194.5t-169 136.5t-229 51q-122 0 -224.5 -50t-169 -134.5t-103.5 -194.5t-37 -231zM623 1616h-181l291 248h170l291 -248h-184l-193 145z" />
    <glyph glyph-name="Otilde" unicode="&#xd5;" horiz-adv-x="1634" 
d="M106 725q0 124 31.5 239t93.5 211t147.5 168t199.5 112t243 40q159 0 293 -60t224 -164t140 -244.5t50 -299.5q0 -124 -31.5 -239t-93.5 -211t-147.5 -168t-199.5 -112t-243 -40q-209 0 -372 104t-249 278.5t-86 385.5zM817 1337q-122 0 -224.5 -50t-169 -134.5
t-103.5 -194.5t-37 -231q0 -119 36 -228t101.5 -195t168.5 -137.5t228 -51.5q123 0 225.5 50t169.5 134.5t103.5 195t36.5 232.5q0 119 -35.5 228t-101.5 194.5t-169 136.5t-229 51zM453 1624q13 98 70 164.5t151 66.5q75 0 157 -53q40 -28 62 -39q32 -16 61 -16q37 0 64 27
q28 25 37 71h129q-13 -99 -68.5 -165t-150.5 -66q-81 0 -158 55q-46 28 -64 37q-32 16 -61 16q-37 0 -64 -24q-27 -27 -36 -74h-129z" />
    <glyph glyph-name="Odieresis" unicode="&#xd6;" horiz-adv-x="1634" 
d="M813 -43q-209 0 -372 104t-249 278.5t-86 385.5q0 124 31.5 239t93.5 211t147.5 168t199.5 112t243 40q159 0 293 -60t224 -164t140 -244.5t50 -299.5q0 -124 -31.5 -239t-93.5 -211t-147.5 -168t-199.5 -112t-243 -40zM817 1337q-122 0 -224.5 -50t-169 -134.5
t-103.5 -194.5t-37 -231q0 -119 36 -228t101.5 -195t168.5 -137.5t228 -51.5q123 0 225.5 50t169.5 134.5t103.5 195t36.5 232.5q0 119 -35.5 228t-101.5 194.5t-169 136.5t-229 51zM930 1724q0 46 32 77.5t78 31.5q44 0 80 -31q31 -36 31 -78q0 -45 -32.5 -76.5
t-78.5 -31.5q-48 0 -77 33q-33 29 -33 75zM485 1724q0 46 32.5 77.5t78.5 31.5q44 0 80 -31q31 -36 31 -78q0 -45 -32.5 -76.5t-78.5 -31.5q-49 0 -78 33q-33 29 -33 75z" />
    <glyph glyph-name="multiply" unicode="&#xd7;" horiz-adv-x="1216" 
d="M213 266l301 301l-287 287l95 94l286 -286l287 286l94 -94l-287 -287l302 -301l-95 -94l-301 301l-301 -301z" />
    <glyph glyph-name="Oslash" unicode="&#xd8;" horiz-adv-x="1636" 
d="M106 725q0 124 31.5 239t93.5 211t147.5 168t199.5 112t243 40q229 0 396 -119l112 150h180l-184 -244q102 -109 152.5 -253t50.5 -302q0 -124 -31.5 -239t-93.5 -211t-147.5 -168t-199.5 -112t-243 -40q-224 0 -395 119l-111 -148h-180l182 242q-101 109 -152 253.5
t-51 301.5zM817 1343q-125 0 -228.5 -50.5t-171 -135.5t-104.5 -196t-37 -234q0 -116 33 -227t101 -195l710 942q-134 96 -303 96zM514 205q137 -96 303 -96q125 0 229 50.5t171 136t104 196.5t37 235q0 254 -133 420z" />
    <glyph glyph-name="Ugrave" unicode="&#xd9;" horiz-adv-x="1429" 
d="M713 -41q-265 0 -419.5 165.5t-154.5 438.5v891h172v-885q0 -94 25.5 -175.5t74 -143.5t127 -97.5t177.5 -35.5q193 0 298 125.5t105 326.5v885h172v-891q0 -130 -39 -240.5t-111.5 -191.5t-182 -126.5t-244.5 -45.5zM389 1864h221l279 -248h-184z" />
    <glyph glyph-name="Uacute" unicode="&#xda;" horiz-adv-x="1429" 
d="M139 1454h172v-885q0 -94 25.5 -175.5t74 -143.5t127 -97.5t177.5 -35.5q193 0 298 125.5t105 326.5v885h172v-891q0 -130 -39 -240.5t-111.5 -191.5t-182 -126.5t-244.5 -45.5q-265 0 -419.5 165.5t-154.5 438.5v891zM721 1616h-184l278 248h221z" />
    <glyph glyph-name="Ucircumflex" unicode="&#xdb;" horiz-adv-x="1429" 
d="M713 -41q-265 0 -419.5 165.5t-154.5 438.5v891h172v-885q0 -94 25.5 -175.5t74 -143.5t127 -97.5t177.5 -35.5q193 0 298 125.5t105 326.5v885h172v-891q0 -130 -39 -240.5t-111.5 -191.5t-182 -126.5t-244.5 -45.5zM338 1616l291 248h170l291 -248h-185l-192 145
l-195 -145h-180z" />
    <glyph glyph-name="Udieresis" unicode="&#xdc;" horiz-adv-x="1429" 
d="M139 1454h172v-885q0 -94 25.5 -175.5t74 -143.5t127 -97.5t177.5 -35.5q193 0 298 125.5t105 326.5v885h172v-891q0 -130 -39 -240.5t-111.5 -191.5t-182 -126.5t-244.5 -45.5q-265 0 -419.5 165.5t-154.5 438.5v891zM381 1724q0 46 32.5 77.5t78.5 31.5q43 0 79 -31
q31 -36 31 -78q0 -46 -32 -77t-78 -31q-49 0 -78 33q-33 29 -33 75zM825 1724q0 46 32.5 77.5t78.5 31.5q44 0 80 -31q31 -36 31 -78q0 -45 -32.5 -76.5t-78.5 -31.5q-49 0 -78 33q-33 29 -33 75z" />
    <glyph glyph-name="Yacute" unicode="&#xdd;" horiz-adv-x="1269" 
d="M549 586l-512 868h196l404 -713l403 713h193l-512 -868v-586h-172v586zM643 1616h-184l278 248h221z" />
    <glyph glyph-name="Thorn" unicode="&#xde;" horiz-adv-x="1169" 
d="M160 1454h172v-264h229q89 0 167 -16.5t145.5 -52t116 -88.5t76.5 -130t28 -172q0 -115 -45 -204t-123 -143t-176 -81t-211 -27q-91 0 -207 17v-293h-172v1454zM332 1036v-590q88 -16 203 -16q78 0 144.5 16t121 50.5t86 95t31.5 141.5q0 149 -101 226t-258 77h-227z" />
    <glyph glyph-name="germandbls" unicode="&#xdf;" horiz-adv-x="1196" 
d="M307 0h-164v1079q0 130 54.5 234.5t157 165.5t235.5 61q114 0 212.5 -46t161 -136.5t62.5 -208.5q0 -106 -52.5 -193.5t-146.5 -132.5q129 -42 203 -149.5t74 -245.5q0 -191 -129.5 -319.5t-323.5 -128.5q-122 0 -202 38l32 142q64 -31 160 -31q127 0 211 86.5t84 214.5
q0 136 -91 221.5t-231 85.5h-67v142h47q110 0 187 73.5t77 184.5q0 112 -77.5 183t-192.5 71q-127 0 -204 -87.5t-77 -218.5v-1085z" />
    <glyph glyph-name="agrave" unicode="&#xe0;" horiz-adv-x="1105" 
d="M471 -31q-156 0 -267.5 87.5t-111.5 240.5q0 87 37.5 154.5t100.5 107t138.5 59t159.5 19.5q71 0 149 -15.5t136 -43.5v77q0 126 -70.5 206.5t-195.5 80.5q-92 0 -165.5 -44.5t-107.5 -127.5l-143 49q42 126 160 196t258 70q193 0 307.5 -118.5t114.5 -315.5v-651h-144
l-10 164q-49 -95 -142 -145t-204 -50zM258 303q0 -95 71.5 -146t172.5 -51q131 0 221 87t90 219v39q-140 57 -266 57q-52 0 -100 -10.5t-92 -33t-70.5 -64t-26.5 -97.5zM262 1520h195l243 -293h-163z" />
    <glyph glyph-name="aacute" unicode="&#xe1;" horiz-adv-x="1105" 
d="M471 -31q-156 0 -267.5 87.5t-111.5 240.5q0 87 37.5 154.5t100.5 107t138.5 59t159.5 19.5q71 0 149 -15.5t136 -43.5v77q0 126 -70.5 206.5t-195.5 80.5q-92 0 -165.5 -44.5t-107.5 -127.5l-143 49q42 126 160 196t258 70q193 0 307.5 -118.5t114.5 -315.5v-651h-144
l-10 164q-49 -95 -142 -145t-204 -50zM258 303q0 -95 71.5 -146t172.5 -51q131 0 221 87t90 219v39q-140 57 -266 57q-52 0 -100 -10.5t-92 -33t-70.5 -64t-26.5 -97.5zM561 1227h-164l244 293h195z" />
    <glyph glyph-name="acircumflex" unicode="&#xe2;" horiz-adv-x="1105" 
d="M92 297q0 87 37.5 154.5t100.5 107t138.5 59t159.5 19.5q71 0 149 -15.5t136 -43.5v77q0 126 -70.5 206.5t-195.5 80.5q-92 0 -165.5 -44.5t-107.5 -127.5l-143 49q42 126 160 196t258 70q193 0 307.5 -118.5t114.5 -315.5v-651h-144l-10 164q-49 -95 -142 -145t-204 -50
q-156 0 -267.5 87.5t-111.5 240.5zM547 508q-52 0 -100 -10.5t-92 -33t-70.5 -64t-26.5 -97.5q0 -95 71.5 -146t172.5 -51q131 0 221 87t90 219v39q-140 57 -266 57zM229 1227l250 293h142l249 -293h-159l-162 176l-164 -176h-156z" />
    <glyph glyph-name="atilde" unicode="&#xe3;" horiz-adv-x="1105" 
d="M471 -31q-156 0 -267.5 87.5t-111.5 240.5q0 87 37.5 154.5t100.5 107t138.5 59t159.5 19.5q71 0 149 -15.5t136 -43.5v77q0 126 -70.5 206.5t-195.5 80.5q-92 0 -165.5 -44.5t-107.5 -127.5l-143 49q42 126 160 196t258 70q193 0 307.5 -118.5t114.5 -315.5v-651h-144
l-10 164q-49 -95 -142 -145t-204 -50zM547 508q-52 0 -100 -10.5t-92 -33t-70.5 -64t-26.5 -97.5q0 -95 71.5 -146t172.5 -51q131 0 221 87t90 219v39q-140 57 -266 57zM227 1227q12 96 60 161.5t137 65.5q75 0 141 -51q34 -26 53 -37q26 -16 50 -16q62 0 80 96h124
q-12 -98 -59 -162.5t-137 -64.5q-69 0 -139 53q-21 17 -54 37q-25 14 -51 14q-62 0 -80 -96h-125z" />
    <glyph glyph-name="adieresis" unicode="&#xe4;" horiz-adv-x="1105" 
d="M92 297q0 87 37.5 154.5t100.5 107t138.5 59t159.5 19.5q71 0 149 -15.5t136 -43.5v77q0 126 -70.5 206.5t-195.5 80.5q-92 0 -165.5 -44.5t-107.5 -127.5l-143 49q42 126 160 196t258 70q193 0 307.5 -118.5t114.5 -315.5v-651h-144l-10 164q-49 -95 -142 -145t-204 -50
q-156 0 -267.5 87.5t-111.5 240.5zM258 303q0 -95 71.5 -146t172.5 -51q131 0 221 87t90 219v39q-140 57 -266 57q-52 0 -100 -10.5t-92 -33t-70.5 -64t-26.5 -97.5zM743 1260q-46 0 -77 30t-31 76t31 76.5t77 30.5t77.5 -30.5t31.5 -76.5q0 -45 -31.5 -75.5t-77.5 -30.5z
M246 1366q0 46 31 76.5t77 30.5t77.5 -30.5t31.5 -76.5q0 -45 -31.5 -75.5t-77.5 -30.5t-77 30t-31 76z" />
    <glyph glyph-name="aring" unicode="&#xe5;" horiz-adv-x="1105" 
d="M471 -31q-156 0 -267.5 87.5t-111.5 240.5q0 87 37.5 154.5t100.5 107t138.5 59t159.5 19.5q71 0 149 -15.5t136 -43.5v77q0 126 -70.5 206.5t-195.5 80.5q-92 0 -165.5 -44.5t-107.5 -127.5l-143 49q42 126 160 196t258 70q193 0 307.5 -118.5t114.5 -315.5v-651h-144
l-10 164q-49 -95 -142 -145t-204 -50zM258 303q0 -95 71.5 -146t172.5 -51q131 0 221 87t90 219v39q-140 57 -266 57q-52 0 -100 -10.5t-92 -33t-70.5 -64t-26.5 -97.5zM342 1372q0 85 60.5 143t146.5 58t146.5 -57.5t60.5 -143.5t-60 -143.5t-147 -57.5q-85 0 -146 58
t-61 143zM549 1475q-42 0 -71 -30.5t-29 -72.5q0 -45 30 -72q27 -30 70 -30q42 0 71 30t29 72q0 43 -28 74q-32 29 -72 29z" />
    <glyph glyph-name="ae" unicode="&#xe6;" horiz-adv-x="1841" 
d="M92 303q0 82 35.5 147.5t95 105t132.5 60.5t153 21q161 0 285 -59v77q0 125 -66 206t-190 81q-92 0 -161 -44t-102 -128l-143 49q43 128 155 197t253 69q118 0 210.5 -55t141.5 -160q66 103 166 159t221 56q140 0 249.5 -71.5t166.5 -190t57 -260.5v-67h-801
q5 -103 45 -188t119.5 -139t185.5 -54q185 0 291 166l140 -64q-64 -121 -175 -184.5t-253 -63.5q-138 0 -253 64.5t-182 183.5q-40 -116 -150.5 -182t-240.5 -66q-74 0 -142.5 22.5t-123 63.5t-87 105.5t-32.5 142.5zM530 508q-51 0 -97.5 -11t-86.5 -34t-64 -64t-24 -96
q0 -57 31 -102q29 -48 84 -71.5t116 -23.5q131 0 217.5 87t86.5 219v39q-129 57 -263 57zM1276 946q-129 0 -212.5 -93.5t-105.5 -229.5h621q-13 136 -92 229.5t-211 93.5z" />
    <glyph glyph-name="ccedilla" unicode="&#xe7;" horiz-adv-x="1118" 
d="M535 -27q-202 26 -323.5 181.5t-121.5 365.5q0 111 37 213t102.5 181t163.5 126t213 47q143 0 255 -74.5t167 -207.5l-149 -51q-45 85 -116 134.5t-163 49.5q-80 0 -146 -36.5t-108 -96t-65 -133t-23 -150.5q0 -118 53 -224t152 -148q64 -31 135 -31q95 0 174.5 48.5
t118.5 133.5l149 -51q-46 -119 -153.5 -193.5t-237.5 -85.5l-20 -75q64 -13 109.5 -58t45.5 -108q0 -89 -71.5 -137t-165.5 -48q-84 0 -154 31l31 109q64 -21 113 -21q47 0 75 19q27 21 27 53q0 80 -150 80z" />
    <glyph glyph-name="egrave" unicode="&#xe8;" horiz-adv-x="1171" 
d="M90 526q0 110 35.5 211t99.5 178.5t160.5 123.5t210.5 46q143 0 254.5 -70t171 -188.5t59.5 -263.5v-67h-821q6 -79 31 -146.5t68.5 -120.5t109.5 -83.5t149 -30.5q199 0 304 166l139 -64q-63 -120 -180 -184t-258 -64q-235 0 -384 158.5t-149 398.5zM268 623h641
q-13 137 -95.5 230t-217.5 93q-131 0 -218 -92.5t-110 -230.5zM309 1520h195l244 -293h-164z" />
    <glyph glyph-name="eacute" unicode="&#xe9;" horiz-adv-x="1171" 
d="M623 -31q-235 0 -384 158.5t-149 398.5q0 110 35.5 211t99.5 178.5t160.5 123.5t210.5 46q143 0 254.5 -70t171 -188.5t59.5 -263.5v-67h-821q6 -79 31 -146.5t68.5 -120.5t109.5 -83.5t149 -30.5q199 0 304 166l139 -64q-63 -120 -180 -184t-258 -64zM268 623h641
q-13 137 -95.5 230t-217.5 93q-131 0 -218 -92.5t-110 -230.5zM608 1227h-164l244 293h195z" />
    <glyph glyph-name="ecircumflex" unicode="&#xea;" horiz-adv-x="1171" 
d="M90 526q0 110 35.5 211t99.5 178.5t160.5 123.5t210.5 46q143 0 254.5 -70t171 -188.5t59.5 -263.5v-67h-821q6 -79 31 -146.5t68.5 -120.5t109.5 -83.5t149 -30.5q199 0 304 166l139 -64q-63 -120 -180 -184t-258 -64q-235 0 -384 158.5t-149 398.5zM268 623h641
q-13 137 -95.5 230t-217.5 93q-131 0 -218 -92.5t-110 -230.5zM432 1227h-156l250 293h142l250 -293h-160l-162 176z" />
    <glyph glyph-name="edieresis" unicode="&#xeb;" horiz-adv-x="1171" 
d="M623 -31q-235 0 -384 158.5t-149 398.5q0 110 35.5 211t99.5 178.5t160.5 123.5t210.5 46q143 0 254.5 -70t171 -188.5t59.5 -263.5v-67h-821q6 -79 31 -146.5t68.5 -120.5t109.5 -83.5t149 -30.5q199 0 304 166l139 -64q-63 -120 -180 -184t-258 -64zM596 946
q-131 0 -218 -92.5t-110 -230.5h641q-13 137 -95.5 230t-217.5 93zM682 1366q0 46 31.5 76.5t77.5 30.5t77 -30.5t31 -76.5t-31 -76t-77 -30t-77.5 30.5t-31.5 75.5zM401 1260q-46 0 -77 30t-31 76t31 76.5t77 30.5t77.5 -30.5t31.5 -76.5q0 -45 -31.5 -75.5t-77.5 -30.5z
" />
    <glyph glyph-name="igrave" unicode="&#xec;" horiz-adv-x="450" 
d="M143 0v1057h164v-1057h-164zM211 1227l-274 293h194l244 -293h-164z" />
    <glyph glyph-name="iacute" unicode="&#xed;" horiz-adv-x="450" 
d="M143 0v1057h164v-1057h-164zM72 1227l243 293h195l-274 -293h-164z" />
    <glyph glyph-name="icircumflex" unicode="&#xee;" horiz-adv-x="450" 
d="M307 0h-164v1057h164v-1057zM-96 1227l250 293h141l250 -293h-160l-162 176l-164 -176h-155z" />
    <glyph glyph-name="idieresis" unicode="&#xef;" horiz-adv-x="450" 
d="M143 1057h164v-1057h-164v1057zM309 1366q0 46 31.5 76.5t77.5 30.5t77 -30.5t31 -76.5t-31 -76t-77 -30t-77.5 30.5t-31.5 75.5zM29 1260q-46 0 -77.5 30.5t-31.5 75.5q0 46 31.5 76.5t77.5 30.5t77 -30.5t31 -76.5t-31 -76t-77 -30z" />
    <glyph glyph-name="eth" unicode="&#xf0;" horiz-adv-x="1241" 
d="M610 -31q-148 0 -268 73.5t-186 198t-66 273.5q0 141 61.5 266t178 204t260.5 79q97 0 181 -40t144 -116q-72 190 -210 346l-201 -102l-55 106l172 89q-70 67 -154 129l168 59q63 -47 131 -115l182 94l58 -104l-158 -80q136 -163 213.5 -359.5t77.5 -398.5
q0 -123 -33.5 -230.5t-97 -191t-166.5 -132t-232 -48.5zM258 518q0 -105 41 -195t124 -147t191 -57q107 0 189.5 55.5t125 146t42.5 197.5q0 165 -97 282.5t-260 117.5q-160 0 -258 -117t-98 -283z" />
    <glyph glyph-name="ntilde" unicode="&#xf1;" horiz-adv-x="1173" 
d="M143 0v1057h148l8 -168q50 95 141.5 146.5t200.5 51.5q99 0 176.5 -37t124.5 -102t71.5 -148.5t24.5 -181.5v-618h-164v608q0 54 -8.5 101t-28 90t-49.5 73t-75.5 48t-102.5 18q-135 0 -219 -87t-84 -224v-627h-164zM268 1227q12 96 60 161.5t137 65.5q75 0 141 -51
q34 -26 53 -37q26 -16 50 -16q61 0 79 96h125q-12 -98 -59 -162.5t-137 -64.5q-69 0 -139 53q-21 17 -54 37q-25 14 -51 14q-62 0 -80 -96h-125z" />
    <glyph glyph-name="ograve" unicode="&#xf2;" horiz-adv-x="1228" 
d="M612 -31q-152 0 -272 75.5t-185 203t-65 280.5q0 151 64.5 278t186 204t275.5 77q153 0 273.5 -75t185 -202t64.5 -282q0 -113 -38 -215t-105.5 -178t-167 -121t-216.5 -45zM614 938q-108 0 -191 -58.5t-124 -151t-41 -200.5q0 -184 102 -292q47 -56 113.5 -86.5
t140.5 -30.5q162 0 259.5 120t97.5 289q0 177 -101 295q-109 115 -256 115zM328 1520h194l244 -293h-164z" />
    <glyph glyph-name="oacute" unicode="&#xf3;" horiz-adv-x="1228" 
d="M612 -31q-152 0 -272 75.5t-185 203t-65 280.5q0 151 64.5 278t186 204t275.5 77q153 0 273.5 -75t185 -202t64.5 -282q0 -113 -38 -215t-105.5 -178t-167 -121t-216.5 -45zM614 938q-108 0 -191 -58.5t-124 -151t-41 -200.5q0 -184 102 -292q47 -56 113.5 -86.5
t140.5 -30.5q162 0 259.5 120t97.5 289q0 177 -101 295q-109 115 -256 115zM627 1227h-164l244 293h194z" />
    <glyph glyph-name="ocircumflex" unicode="&#xf4;" horiz-adv-x="1228" 
d="M612 -31q-152 0 -272 75.5t-185 203t-65 280.5q0 151 64.5 278t186 204t275.5 77q153 0 273.5 -75t185 -202t64.5 -282q0 -113 -38 -215t-105.5 -178t-167 -121t-216.5 -45zM614 938q-108 0 -191 -58.5t-124 -151t-41 -200.5q0 -184 102 -292q47 -56 113.5 -86.5
t140.5 -30.5q162 0 259.5 120t97.5 289q0 177 -101 295q-109 115 -256 115zM451 1227h-156l250 293h141l250 -293h-160l-162 176z" />
    <glyph glyph-name="otilde" unicode="&#xf5;" horiz-adv-x="1228" 
d="M90 528q0 151 64.5 278t186 204t275.5 77q153 0 273.5 -75t185 -202t64.5 -282q0 -113 -38 -215t-105.5 -178t-167 -121t-216.5 -45q-152 0 -272 75.5t-185 203t-65 280.5zM614 938q-108 0 -191 -58.5t-124 -151t-41 -200.5q0 -184 102 -292q47 -56 113.5 -86.5
t140.5 -30.5q162 0 259.5 120t97.5 289q0 177 -101 295q-109 115 -256 115zM418 1227h-125q12 96 59.5 161.5t136.5 65.5q76 0 142 -51q34 -26 53 -37q26 -16 49 -16q62 0 80 96h125q-12 -98 -59.5 -162.5t-137.5 -64.5q-69 0 -139 53q-25 20 -53 37q-25 14 -51 14
q-62 0 -80 -96z" />
    <glyph glyph-name="odieresis" unicode="&#xf6;" horiz-adv-x="1228" 
d="M612 -31q-152 0 -272 75.5t-185 203t-65 280.5q0 151 64.5 278t186 204t275.5 77q153 0 273.5 -75t185 -202t64.5 -282q0 -113 -38 -215t-105.5 -178t-167 -121t-216.5 -45zM614 938q-108 0 -191 -58.5t-124 -151t-41 -200.5q0 -184 102 -292q47 -56 113.5 -86.5
t140.5 -30.5q162 0 259.5 120t97.5 289q0 177 -101 295q-109 115 -256 115zM809 1260q-46 0 -77.5 30.5t-31.5 75.5q0 46 31.5 76.5t77.5 30.5t77.5 -30.5t31.5 -76.5q0 -45 -31.5 -75.5t-77.5 -30.5zM420 1260q-46 0 -77.5 30.5t-31.5 75.5q0 46 31.5 76.5t77.5 30.5
t77 -30.5t31 -76.5t-31 -76t-77 -30z" />
    <glyph glyph-name="divide" unicode="&#xf7;" horiz-adv-x="1216" 
d="M201 637h815v-145h-815v145zM608 776q-43 0 -73.5 31t-30.5 74t30.5 73.5t73.5 30.5t74 -30.5t31 -73.5t-31 -74t-74 -31zM608 143q-43 0 -73.5 31t-30.5 74t30.5 73.5t73.5 30.5t74 -30.5t31 -73.5t-31 -74t-74 -31z" />
    <glyph glyph-name="oslash" unicode="&#xf8;" horiz-adv-x="1228" 
d="M238 129q-74 77 -111 181.5t-37 217.5q0 151 64.5 278t186 204t275.5 77t273 -75l72 96h163l-133 -180q74 -77 111 -182t37 -218t-38 -215t-105.5 -178t-167 -121t-216.5 -45q-152 0 -272 76l-72 -96h-164zM254 528q0 -70 20.5 -142t59.5 -126l465 629q-39 26 -86 41
q-47 12 -99 12q-83 0 -152 -34t-114 -91.5t-69.5 -132t-24.5 -156.5zM430 168q41 -27 86 -39q43 -14 98 -14q165 0 263 120.5t98 292.5q0 157 -80 269z" />
    <glyph glyph-name="ugrave" unicode="&#xf9;" horiz-adv-x="1155" 
d="M573 -31q-210 0 -324 135.5t-114 354.5v598h164v-600q0 -67 16.5 -126.5t49 -107.5t87.5 -76t126 -28q95 0 159 47.5t91.5 121.5t27.5 169v600h164v-598q0 -138 -49.5 -247t-152.5 -176t-245 -67zM565 1227l-274 293h194l244 -293h-164z" />
    <glyph glyph-name="uacute" unicode="&#xfa;" horiz-adv-x="1155" 
d="M573 -31q-210 0 -324 135.5t-114 354.5v598h164v-600q0 -67 16.5 -126.5t49 -107.5t87.5 -76t126 -28q95 0 159 47.5t91.5 121.5t27.5 169v600h164v-598q0 -138 -49.5 -247t-152.5 -176t-245 -67zM590 1227h-164l244 293h194z" />
    <glyph glyph-name="ucircumflex" unicode="&#xfb;" horiz-adv-x="1155" 
d="M135 459v598h164v-600q0 -67 16.5 -126.5t49 -107.5t87.5 -76t126 -28q95 0 159 47.5t91.5 121.5t27.5 169v600h164v-598q0 -138 -49.5 -247t-152.5 -176t-245 -67q-210 0 -324 135.5t-114 354.5zM258 1227l250 293h141l250 -293h-160l-161 176l-164 -176h-156z" />
    <glyph glyph-name="udieresis" unicode="&#xfc;" horiz-adv-x="1155" 
d="M135 1057h164v-600q0 -67 16.5 -126.5t49 -107.5t87.5 -76t126 -28q95 0 159 47.5t91.5 121.5t27.5 169v600h164v-598q0 -138 -49.5 -247t-152.5 -176t-245 -67q-210 0 -324 135.5t-114 354.5v598zM772 1260q-46 0 -77 30t-31 76t31 76.5t77 30.5t77.5 -30.5t31.5 -76.5
q0 -45 -31.5 -75.5t-77.5 -30.5zM383 1260q-46 0 -77.5 30.5t-31.5 75.5q0 46 31.5 76.5t77.5 30.5t77.5 -30.5t31.5 -76.5q0 -45 -31.5 -75.5t-77.5 -30.5z" />
    <glyph glyph-name="yacute" unicode="&#xfd;" horiz-adv-x="1071" 
d="M475 10l-438 1047h180l338 -869l305 869h174l-471 -1223q-101 -272 -330 -272q-84 0 -155 39l47 131q48 -25 100 -25q130 0 195 166zM383 1227l244 293h194l-274 -293h-164z" />
    <glyph glyph-name="thorn" unicode="&#xfe;" horiz-adv-x="1273" 
d="M143 1520h164v-650q61 105 160 161t221 56q110 0 204.5 -46t157.5 -123.5t98.5 -178t35.5 -209.5q0 -146 -60 -273t-177 -207.5t-267 -80.5q-120 0 -217.5 54.5t-155.5 156.5v-598h-164v1938zM303 528q0 -183 103 -292q47 -57 113 -87t140 -30q162 0 259.5 120t97.5 289
q0 177 -101 295q-109 115 -256 115q-108 0 -191 -58.5t-124 -151t-41 -200.5z" />
    <glyph glyph-name="ydieresis" unicode="&#xff;" horiz-adv-x="1071" 
d="M37 1057h180l338 -869l305 869h174l-471 -1223q-101 -272 -330 -272q-84 0 -155 39l47 131q48 -25 100 -25q130 0 195 166l55 137zM729 1260q-46 0 -77 30t-31 76t31 76.5t77 30.5t77.5 -30.5t31.5 -76.5q0 -45 -31.5 -75.5t-77.5 -30.5zM340 1260q-46 0 -77.5 30.5
t-31.5 75.5q0 46 31.5 76.5t77.5 30.5t77.5 -30.5t31.5 -76.5q0 -45 -31.5 -75.5t-77.5 -30.5z" />
    <glyph glyph-name="Amacron" unicode="&#x100;" horiz-adv-x="1447" 
d="M47 0l586 1454h182l586 -1454h-184l-162 414h-668l-162 -414h-178zM449 571h542l-270 693zM1063 1626h-680v133h680v-133z" />
    <glyph glyph-name="amacron" unicode="&#x101;" horiz-adv-x="1105" 
d="M471 -31q-156 0 -267.5 87.5t-111.5 240.5q0 87 37.5 154.5t100.5 107t138.5 59t159.5 19.5q71 0 149 -15.5t136 -43.5v77q0 126 -70.5 206.5t-195.5 80.5q-92 0 -165.5 -44.5t-107.5 -127.5l-143 49q42 126 160 196t258 70q193 0 307.5 -118.5t114.5 -315.5v-651h-144
l-10 164q-49 -95 -142 -145t-204 -50zM547 508q-52 0 -100 -10.5t-92 -33t-70.5 -64t-26.5 -97.5q0 -95 71.5 -146t172.5 -51q131 0 221 87t90 219v39q-140 57 -266 57zM250 1382h598v-131h-598v131z" />
    <glyph glyph-name="Abreve" unicode="&#x102;" horiz-adv-x="1447" 
d="M225 0h-178l586 1454h182l586 -1454h-184l-162 414h-668zM449 571h542l-270 693zM395 1868h144q19 -67 67 -101q45 -36 117 -36q69 0 117 35.5t67 101.5h144q-23 -123 -111.5 -192.5t-216.5 -69.5q-91 0 -154 32q-71 32 -115.5 92t-58.5 138z" />
    <glyph glyph-name="abreve" unicode="&#x103;" horiz-adv-x="1105" 
d="M92 297q0 87 37.5 154.5t100.5 107t138.5 59t159.5 19.5q71 0 149 -15.5t136 -43.5v77q0 126 -70.5 206.5t-195.5 80.5q-92 0 -165.5 -44.5t-107.5 -127.5l-143 49q42 126 160 196t258 70q193 0 307.5 -118.5t114.5 -315.5v-651h-144l-10 164q-49 -95 -142 -145t-204 -50
q-156 0 -267.5 87.5t-111.5 240.5zM547 508q-52 0 -100 -10.5t-92 -33t-70.5 -64t-26.5 -97.5q0 -95 71.5 -146t172.5 -51q131 0 221 87t90 219v39q-140 57 -266 57zM242 1485h139q15 -65 58 -101t110 -36t110 36t58 101h139q-24 -120 -104 -190t-203 -70
q-121 0 -202.5 69.5t-104.5 190.5z" />
    <glyph glyph-name="Aogonek" unicode="&#x104;" horiz-adv-x="1447" 
d="M47 0l586 1454h182l586 -1454q-195 -149 -195 -240q0 -37 23.5 -56t60.5 -19q61 0 109 20l28 -113q-87 -34 -163 -34q-54 0 -102 22t-75 64q-26 39 -26 94q0 71 49 139t119 123h-12l-162 414h-668l-162 -414h-178zM721 1264l-272 -693h542z" />
    <glyph glyph-name="aogonek" unicode="&#x105;" horiz-adv-x="1105" 
d="M92 297q0 87 37.5 154.5t100.5 107t138.5 59t159.5 19.5q71 0 149 -15.5t136 -43.5v77q0 126 -70.5 206.5t-195.5 80.5q-92 0 -165.5 -44.5t-107.5 -127.5l-143 49q42 126 160 196t258 70q193 0 307.5 -118.5t114.5 -315.5v-651q-195 -149 -195 -240q0 -37 23.5 -56
t60.5 -19q64 0 109 20l28 -108q-97 -33 -161 -33q-53 0 -101 21.5t-73 62.5q-27 41 -27 92q0 41 17 81t48.5 76.5t59 62t65.5 56.5l-8 148q-49 -95 -142 -145t-204 -50q-156 0 -267.5 87.5t-111.5 240.5zM258 303q0 -95 71.5 -146t172.5 -51q131 0 221 87t90 219v39
q-140 57 -266 57q-52 0 -100 -10.5t-92 -33t-70.5 -64t-26.5 -97.5z" />
    <glyph glyph-name="Cacute" unicode="&#x106;" horiz-adv-x="1478" 
d="M797 -41q-204 0 -363.5 104t-243.5 275t-84 377q0 150 48 289.5t134.5 249t218.5 175.5t288 66q191 0 350 -97.5t229 -271.5l-157 -59q-64 130 -171 200t-249 70q-119 0 -218.5 -54t-163 -142.5t-98 -198.5t-34.5 -225q0 -116 34 -222.5t97.5 -191.5t164 -135.5
t222.5 -50.5q287 0 430 270l158 -59q-75 -175 -235.5 -272t-356.5 -97zM618 1616l279 248h221l-315 -248h-185z" />
    <glyph glyph-name="cacute" unicode="&#x107;" horiz-adv-x="1118" 
d="M90 520q0 111 37 213t102.5 181t163.5 126t213 47q143 0 255 -74.5t167 -207.5l-149 -51q-45 85 -116 134.5t-163 49.5q-80 0 -146 -36.5t-108 -96t-65 -133t-23 -150.5q0 -118 53 -224t152 -148q64 -31 135 -31q95 0 174.5 48.5t118.5 133.5l149 -51
q-53 -132 -174.5 -206.5t-267.5 -74.5q-148 0 -265.5 75.5t-180 200.5t-62.5 275zM614 1227h-163l243 293h195z" />
    <glyph glyph-name="Cdotaccent" unicode="&#x10a;" horiz-adv-x="1478" 
d="M797 -41q-204 0 -363.5 104t-243.5 275t-84 377q0 150 48 289.5t134.5 249t218.5 175.5t288 66q191 0 350 -97.5t229 -271.5l-157 -59q-64 130 -171 200t-249 70q-119 0 -218.5 -54t-163 -142.5t-98 -198.5t-34.5 -225q0 -116 34 -222.5t97.5 -191.5t164 -135.5
t222.5 -50.5q287 0 430 270l158 -59q-75 -175 -235.5 -272t-356.5 -97zM795 1616q-46 0 -81.5 34.5t-35.5 80.5q0 47 34.5 80.5t82.5 33.5t82 -32.5t34 -81.5q0 -47 -34.5 -81t-81.5 -34z" />
    <glyph glyph-name="cdotaccent" unicode="&#x10b;" horiz-adv-x="1118" 
d="M90 520q0 111 37 213t102.5 181t163.5 126t213 47q143 0 255 -74.5t167 -207.5l-149 -51q-45 85 -116 134.5t-163 49.5q-80 0 -146 -36.5t-108 -96t-65 -133t-23 -150.5q0 -118 53 -224t152 -148q64 -31 135 -31q95 0 174.5 48.5t118.5 133.5l149 -51
q-53 -132 -174.5 -206.5t-267.5 -74.5q-148 0 -265.5 75.5t-180 200.5t-62.5 275zM602 1253q-44 0 -78.5 34.5t-34.5 78.5q0 46 33.5 79.5t79.5 33.5q48 0 80.5 -32t32.5 -81q0 -46 -33.5 -79.5t-79.5 -33.5z" />
    <glyph glyph-name="Ccaron" unicode="&#x10c;" horiz-adv-x="1478" 
d="M797 -41q-204 0 -363.5 104t-243.5 275t-84 377q0 150 48 289.5t134.5 249t218.5 175.5t288 66q191 0 350 -97.5t229 -271.5l-157 -59q-64 130 -171 200t-249 70q-119 0 -218.5 -54t-163 -142.5t-98 -198.5t-34.5 -225q0 -116 34 -222.5t97.5 -191.5t164 -135.5
t222.5 -50.5q287 0 430 270l158 -59q-75 -175 -235.5 -272t-356.5 -97zM420 1864h184l195 -146l192 146h180l-290 -248h-170z" />
    <glyph glyph-name="ccaron" unicode="&#x10d;" horiz-adv-x="1118" 
d="M90 520q0 111 37 213t102.5 181t163.5 126t213 47q143 0 255 -74.5t167 -207.5l-149 -51q-45 85 -116 134.5t-163 49.5q-80 0 -146 -36.5t-108 -96t-65 -133t-23 -150.5q0 -118 53 -224t152 -148q64 -31 135 -31q95 0 174.5 48.5t118.5 133.5l149 -51
q-53 -132 -174.5 -206.5t-267.5 -74.5q-148 0 -265.5 75.5t-180 200.5t-62.5 275zM532 1227l-249 293h159l162 -177l164 177h156l-250 -293h-142z" />
    <glyph glyph-name="Dcaron" unicode="&#x10e;" horiz-adv-x="1517" 
d="M160 0v1454h481q164 0 304 -47.5t244 -137.5t163 -228t59 -310q0 -222 -97 -388.5t-270.5 -254.5t-400.5 -88h-483zM332 1296v-1138h305q129 0 238.5 38t189.5 108.5t125 179t45 243.5q0 263 -163 416t-435 153h-305zM330 1864h184l195 -146l192 146h180l-290 -248h-170z
" />
    <glyph glyph-name="dcaron" unicode="&#x10f;" horiz-adv-x="1273" 
d="M90 526q0 146 60 273t177 207.5t267 80.5q119 0 216 -54t157 -156v643h163v-1520h-147l-8 201q-62 -113 -162 -172.5t-227 -59.5q-145 0 -260.5 79.5t-175.5 205.5t-60 272zM258 528q0 -184 102 -292q47 -56 113.5 -86.5t140.5 -30.5q162 0 259.5 120t97.5 289
q0 177 -101 295q-109 115 -256 115q-108 0 -191 -58.5t-124 -151t-41 -200.5zM1397 1155h-113l39 365h147z" />
    <glyph glyph-name="Dcroat" unicode="&#x110;" horiz-adv-x="1538" 
d="M-2 825h182v629h482q164 0 304 -47.5t244 -137.5t163 -228t59 -310q0 -222 -97 -388.5t-270.5 -254.5t-400.5 -88h-484v688h-182v137zM657 1296h-305v-471h346v-137h-346v-530h305q129 0 238.5 38t189.5 108.5t125 179t45 243.5q0 263 -163 416t-435 153z" />
    <glyph glyph-name="dcroat" unicode="&#x111;" horiz-adv-x="1273" 
d="M90 526q0 146 60 273t177 207.5t267 80.5q119 0 216 -54t157 -156v346h-336v127h336v170h163v-170h162v-127h-162v-1223h-147l-8 201q-62 -113 -162 -172.5t-227 -59.5q-145 0 -260.5 79.5t-175.5 205.5t-60 272zM258 528q0 -184 102 -292q47 -56 113.5 -86.5
t140.5 -30.5q162 0 259.5 120t97.5 289q0 177 -101 295q-109 115 -256 115q-108 0 -191 -58.5t-124 -151t-41 -200.5z" />
    <glyph glyph-name="Emacron" unicode="&#x112;" horiz-adv-x="1148" 
d="M160 0v1454h837v-154h-665v-466h608v-156h-608v-522h686v-156h-858zM918 1626h-680v133h680v-133z" />
    <glyph glyph-name="emacron" unicode="&#x113;" horiz-adv-x="1171" 
d="M90 526q0 110 35.5 211t99.5 178.5t160.5 123.5t210.5 46q143 0 254.5 -70t171 -188.5t59.5 -263.5v-67h-821q6 -79 31 -146.5t68.5 -120.5t109.5 -83.5t149 -30.5q199 0 304 166l139 -64q-63 -120 -180 -184t-258 -64q-235 0 -384 158.5t-149 398.5zM268 623h641
q-13 137 -95.5 230t-217.5 93q-131 0 -218 -92.5t-110 -230.5zM297 1382h598v-131h-598v131z" />
    <glyph glyph-name="Edotaccent" unicode="&#x116;" horiz-adv-x="1148" 
d="M160 1454h837v-154h-665v-466h608v-156h-608v-522h686v-156h-858v1454zM578 1616q-46 0 -81.5 34.5t-35.5 80.5q0 47 34.5 80.5t82.5 33.5t82 -32.5t34 -81.5q0 -47 -34.5 -81t-81.5 -34z" />
    <glyph glyph-name="edotaccent" unicode="&#x117;" horiz-adv-x="1171" 
d="M623 -31q-235 0 -384 158.5t-149 398.5q0 110 35.5 211t99.5 178.5t160.5 123.5t210.5 46q143 0 254.5 -70t171 -188.5t59.5 -263.5v-67h-821q6 -79 31 -146.5t68.5 -120.5t109.5 -83.5t149 -30.5q199 0 304 166l139 -64q-63 -120 -180 -184t-258 -64zM596 946
q-131 0 -218 -92.5t-110 -230.5h641q-13 137 -95.5 230t-217.5 93zM596 1253q-44 0 -78.5 34.5t-34.5 78.5q0 46 33.5 79.5t79.5 33.5q48 0 80.5 -32t32.5 -81q0 -46 -33.5 -79.5t-79.5 -33.5z" />
    <glyph glyph-name="Eogonek" unicode="&#x118;" horiz-adv-x="1148" 
d="M160 0v1454h837v-154h-665v-466h608v-156h-608v-522h686v-156q-195 -149 -195 -240q0 -37 23.5 -56t60.5 -19q61 0 109 20l28 -113q-87 -34 -163 -34q-54 0 -101.5 22t-74.5 64q-27 40 -27 94q0 71 49 139t119 123h-686z" />
    <glyph glyph-name="eogonek" unicode="&#x119;" horiz-adv-x="1171" 
d="M90 526q0 110 35.5 211t99.5 178.5t160.5 123.5t210.5 46q143 0 254.5 -70t171 -188.5t59.5 -263.5v-67h-821q6 -79 31 -146.5t68.5 -120.5t109.5 -83.5t149 -30.5q199 0 304 166l139 -64q-25 -46 -66.5 -93.5t-81.5 -70.5q-165 -173 -165 -280q0 -43 26 -66
q28 -22 76 -22q52 0 90 20l29 -108q-74 -33 -146 -33q-93 0 -155 47t-62 137q0 107 113 229q-41 -8 -96 -8q-235 0 -384 158.5t-149 398.5zM268 623h641q-13 137 -95.5 230t-217.5 93q-131 0 -218 -92.5t-110 -230.5z" />
    <glyph glyph-name="Ecaron" unicode="&#x11a;" horiz-adv-x="1148" 
d="M160 1454h837v-154h-665v-466h608v-156h-608v-522h686v-156h-858v1454zM203 1864h184l195 -146l192 146h180l-290 -248h-170z" />
    <glyph glyph-name="ecaron" unicode="&#x11b;" horiz-adv-x="1171" 
d="M90 526q0 110 35.5 211t99.5 178.5t160.5 123.5t210.5 46q143 0 254.5 -70t171 -188.5t59.5 -263.5v-67h-821q6 -79 31 -146.5t68.5 -120.5t109.5 -83.5t149 -30.5q199 0 304 166l139 -64q-63 -120 -180 -184t-258 -64q-235 0 -384 158.5t-149 398.5zM268 623h641
q-13 137 -95.5 230t-217.5 93q-131 0 -218 -92.5t-110 -230.5zM276 1520h160l162 -177l164 177h156l-250 -293h-142z" />
    <glyph glyph-name="Gbreve" unicode="&#x11e;" horiz-adv-x="1599" 
d="M106 719q0 124 32 239.5t94.5 212.5t148.5 170t200.5 113.5t243.5 40.5q191 0 348 -91.5t240 -260.5l-160 -66q-66 125 -176 192.5t-250 67.5q-164 0 -290 -86.5t-190 -225.5t-64 -304q0 -120 38 -229t106.5 -192.5t173.5 -133t230 -49.5q211 0 345.5 133t140.5 348h-445
v152h621v-117q0 -191 -82.5 -344.5t-235 -241.5t-348.5 -88q-157 0 -292.5 59t-229 160.5t-146.5 241.5t-53 299zM678 1638q-71 32 -115.5 92t-58.5 138h143q19 -67 68 -101q45 -36 116 -36q69 0 117.5 35.5t67.5 101.5h143q-23 -123 -111.5 -192.5t-216.5 -69.5
q-90 0 -153 32z" />
    <glyph glyph-name="gbreve" unicode="&#x11f;" horiz-adv-x="1261" 
d="M580 10q-142 0 -255.5 75t-174 197t-60.5 265q0 142 60.5 264.5t176 199t261.5 76.5q119 0 219 -56t156 -159l8 185h147v-967q0 -154 -59 -275t-176.5 -192.5t-276.5 -71.5q-148 0 -266 62.5t-193 187.5l138 70q120 -178 321 -178q168 0 258 108.5t90 282.5v135
q-60 -101 -157.5 -155t-216.5 -54zM258 549q0 -104 40.5 -191.5t121.5 -142.5t188 -55q158 0 254 112.5t96 276.5q0 163 -94 276t-256 113q-158 0 -254 -112.5t-96 -276.5zM614 1225q-121 0 -202.5 69.5t-104.5 190.5h139q15 -65 58 -101t110 -36t110 36t58 101h140
q-24 -120 -104.5 -190t-203.5 -70z" />
    <glyph glyph-name="Gdotaccent" unicode="&#x120;" horiz-adv-x="1599" 
d="M827 -41q-157 0 -292.5 59t-229 160.5t-146.5 241.5t-53 299q0 124 32 239.5t94.5 212.5t148.5 170t200.5 113.5t243.5 40.5q191 0 348 -91.5t240 -260.5l-160 -66q-66 125 -176 192.5t-250 67.5q-164 0 -290 -86.5t-190 -225.5t-64 -304q0 -120 38 -229t106.5 -192.5
t173.5 -133t230 -49.5q211 0 345.5 133t140.5 348h-445v152h621v-117q0 -191 -82.5 -344.5t-235 -241.5t-348.5 -88zM715 1731q0 47 34.5 80.5t81.5 33.5q48 0 82.5 -32.5t34.5 -81.5q0 -47 -35 -81t-82 -34q-46 0 -81 34.5t-35 80.5z" />
    <glyph glyph-name="gdotaccent" unicode="&#x121;" horiz-adv-x="1261" 
d="M580 10q-142 0 -255.5 75t-174 197t-60.5 265q0 142 60.5 264.5t176 199t261.5 76.5q119 0 219 -56t156 -159l8 185h147v-967q0 -154 -59 -275t-176.5 -192.5t-276.5 -71.5q-148 0 -266 62.5t-193 187.5l138 70q120 -178 321 -178q168 0 258 108.5t90 282.5v135
q-60 -101 -157.5 -155t-216.5 -54zM258 549q0 -104 40.5 -191.5t121.5 -142.5t188 -55q158 0 254 112.5t96 276.5q0 163 -94 276t-256 113q-158 0 -254 -112.5t-96 -276.5zM502 1366q0 46 33 79.5t79 33.5q48 0 80.5 -32t32.5 -81q0 -46 -33.5 -79.5t-79.5 -33.5
q-44 0 -78 34.5t-34 78.5z" />
    <glyph glyph-name="uni0122" unicode="&#x122;" horiz-adv-x="1599" 
d="M827 -41q-157 0 -292.5 59t-229 160.5t-146.5 241.5t-53 299q0 124 32 239.5t94.5 212.5t148.5 170t200.5 113.5t243.5 40.5q191 0 348 -91.5t240 -260.5l-160 -66q-66 125 -176 192.5t-250 67.5q-164 0 -290 -86.5t-190 -225.5t-64 -304q0 -120 38 -229t106.5 -192.5
t173.5 -133t230 -49.5q211 0 345.5 133t140.5 348h-445v152h621v-117q0 -191 -82.5 -344.5t-235 -241.5t-348.5 -88zM786 -322q-34 0 -55.5 25.5t-21.5 60.5q0 42 29.5 67.5t72.5 25.5q39 0 66 -21q61 -41 61 -129q0 -81 -49 -139t-129 -88l-39 88q104 51 104 121
q-18 -11 -39 -11z" />
    <glyph glyph-name="uni0123" unicode="&#x123;" horiz-adv-x="1261" 
d="M580 10q-142 0 -255.5 75t-174 197t-60.5 265q0 142 60.5 264.5t176 199t261.5 76.5q119 0 219 -56t156 -159l8 185h147v-967q0 -154 -59 -275t-176.5 -192.5t-276.5 -71.5q-148 0 -266 62.5t-193 187.5l138 70q120 -178 321 -178q168 0 258 108.5t90 282.5v135
q-60 -101 -157.5 -155t-216.5 -54zM608 938q-158 0 -254 -112.5t-96 -276.5q0 -104 40.5 -191.5t121.5 -142.5t188 -55q158 0 254 112.5t96 276.5q0 163 -94 276t-256 113zM565 1210q-61 41 -61 129q0 80 48.5 139.5t125.5 88.5l39 -90q-40 -17 -72.5 -51t-32.5 -72
q17 10 39 10q33 0 56 -23q22 -25 22 -61q0 -39 -27 -63q-27 -27 -73 -27q-38 0 -64 20z" />
    <glyph glyph-name="Hbar" unicode="&#x126;" horiz-adv-x="1511" 
d="M-2 1106v131h182v217h172v-217h807v217h172v-217h182v-131h-182v-1106h-172v668h-807v-668h-172v1106h-182zM352 825h807v281h-807v-281z" />
    <glyph glyph-name="hbar" unicode="&#x127;" horiz-adv-x="1173" 
d="M143 1227h-161v119h161v174h164v-174h336v-119h-336v-324q50 90 139 137t195 47q99 0 176.5 -37t124.5 -102t71.5 -148.5t24.5 -181.5v-618h-164v608q0 54 -8.5 101t-28 90t-49.5 73t-75.5 48t-102.5 18q-135 0 -219 -87t-84 -224v-627h-164v1227z" />
    <glyph glyph-name="Itilde" unicode="&#x128;" horiz-adv-x="491" 
d="M332 0h-172v1454h172v-1454zM-121 1624q15 101 70.5 166t150.5 65q76 0 158 -53q42 -30 61 -39q32 -16 62 -16q36 0 63 27q28 25 37 71h129q-13 -99 -68.5 -165t-150.5 -66q-81 0 -158 55q-51 31 -63 37q-32 16 -61 16q-37 0 -64 -24q-28 -28 -37 -74h-129z" />
    <glyph glyph-name="itilde" unicode="&#x129;" horiz-adv-x="450" 
d="M307 0h-164v1057h164v-1057zM-98 1227q12 96 59.5 161.5t136.5 65.5q76 0 142 -51q34 -26 53 -37q26 -16 49 -16q62 0 80 96h125q-12 -98 -59.5 -162.5t-137.5 -64.5q-69 0 -139 53q-25 20 -53 37q-25 14 -52 14q-61 0 -79 -96h-125z" />
    <glyph glyph-name="Imacron" unicode="&#x12a;" horiz-adv-x="491" 
d="M160 0v1454h172v-1454h-172zM-96 1626v133h680v-133h-680z" />
    <glyph glyph-name="imacron" unicode="&#x12b;" horiz-adv-x="450" 
d="M143 0v1057h164v-1057h-164zM-76 1251v131h598v-131h-598z" />
    <glyph glyph-name="Iogonek" unicode="&#x12e;" horiz-adv-x="491" 
d="M-8 -262q0 71 49 139t119 123v1454h172v-1454q-195 -149 -195 -240q0 -37 23.5 -56t60.5 -19q61 0 109 20l28 -113q-87 -34 -163 -34q-54 0 -102 22t-75 64q-26 39 -26 94z" />
    <glyph glyph-name="iogonek" unicode="&#x12f;" horiz-adv-x="450" 
d="M-29 -260q0 127 172 262v1055h164v-1057q-194 -148 -194 -240q0 -37 23.5 -56t60.5 -19q63 0 108 20l29 -108q-97 -33 -162 -33q-53 0 -100.5 21.5t-75.5 62.5q-25 42 -25 92zM113 1366q0 46 33 79.5t79 33.5q48 0 80.5 -32t32.5 -81q0 -46 -33.5 -79.5t-79.5 -33.5
q-44 0 -78 34.5t-34 78.5z" />
    <glyph glyph-name="Idotaccent" unicode="&#x130;" horiz-adv-x="491" 
d="M160 1454h172v-1454h-172v1454zM127 1731q0 47 34.5 80.5t82.5 33.5t82 -32.5t34 -81.5q0 -47 -34.5 -81t-81.5 -34q-46 0 -81.5 34.5t-35.5 80.5z" />
    <glyph glyph-name="dotlessi" unicode="&#x131;" horiz-adv-x="450" 
d="M143 0v1057h164v-1057h-164z" />
    <glyph glyph-name="IJ" unicode="&#x132;" horiz-adv-x="1376" 
d="M145 322l162 49q50 -120 146 -187t223 -67t216.5 62t131 162.5t41.5 227.5v885h172v-885q0 -172 -61.5 -308t-190 -219t-307.5 -83q-188 0 -327 93t-206 270zM139 1454h172v-858h-172v858z" />
    <glyph glyph-name="ij" unicode="&#x133;" horiz-adv-x="1173" 
d="M532 10q-98 0 -175.5 37.5t-125 102.5t-72 148.5t-24.5 180.5v578h164v-568q0 -67 14.5 -124t44 -104.5t82 -74t123.5 -26.5q133 0 218 88.5t85 222.5v586h164v-1004q0 -221 -123.5 -361.5t-345.5 -140.5q-134 0 -246.5 58.5t-173.5 171.5l138 69q109 -157 282 -157
q147 0 226 100t79 254v148q-50 -89 -140 -137t-194 -48zM836 1366q0 46 33 79.5t79 33.5q48 0 80.5 -32t32.5 -81q0 -46 -33.5 -79.5t-79.5 -33.5q-44 0 -78 34.5t-34 78.5zM217 1253q-44 0 -78.5 34.5t-34.5 78.5q0 46 33.5 79.5t79.5 33.5q48 0 80.5 -32t32.5 -81
q0 -46 -33.5 -79.5t-79.5 -33.5z" />
    <glyph glyph-name="uni0136" unicode="&#x136;" horiz-adv-x="1325" 
d="M332 0h-172v1454h172v-657l667 657h226l-705 -686l778 -768h-247l-719 715v-715zM557 -236q0 42 29.5 67.5t72.5 25.5q39 0 66 -21q61 -41 61 -129q0 -81 -49 -139t-129 -88l-39 88q105 51 105 121q-18 -11 -39 -11q-34 0 -56 25.5t-22 60.5z" />
    <glyph glyph-name="uni0137" unicode="&#x137;" horiz-adv-x="1083" 
d="M143 0v1520h164v-906l500 443h211l-541 -473l590 -584h-225l-535 541v-541h-164zM481 -270q-22 25 -22 61q0 39 28 64q26 26 72 26q38 0 64 -20q61 -41 61 -129q0 -80 -48.5 -139.5t-125.5 -88.5l-39 90q104 49 104 123q-17 -10 -38 -10q-33 0 -56 23z" />
    <glyph glyph-name="kgreenlandic" unicode="&#x138;" horiz-adv-x="1083" 
d="M143 1057h164v-467l500 467h211l-541 -496l590 -561h-225l-535 516v-516h-164v1057z" />
    <glyph glyph-name="Lacute" unicode="&#x139;" horiz-adv-x="1075" 
d="M160 0v1454h172v-1296h647v-158h-819zM70 1616l278 248h221l-315 -248h-184z" />
    <glyph glyph-name="lacute" unicode="&#x13a;" horiz-adv-x="450" 
d="M143 0v1520h164v-1520h-164zM72 1636l243 293h195l-274 -293h-164z" />
    <glyph glyph-name="uni013B" unicode="&#x13b;" horiz-adv-x="1075" 
d="M160 0v1454h172v-1296h647v-158h-819zM530 -322q-34 0 -55.5 25.5t-21.5 60.5q0 42 29.5 67.5t72.5 25.5q39 0 66 -21q61 -41 61 -129q0 -81 -49 -139t-129 -88l-39 88q104 51 104 121q-18 -11 -39 -11z" />
    <glyph glyph-name="uni013C" unicode="&#x13c;" horiz-adv-x="450" 
d="M143 1520h164v-1520h-164v1520zM135 -270q-22 25 -22 61q0 39 28 64q26 26 72 26q37 0 63 -20q62 -42 62 -129q0 -80 -48.5 -139.5t-125.5 -88.5l-39 90q104 49 104 123q-17 -10 -39 -10q-32 0 -55 23z" />
    <glyph glyph-name="Lcaron" unicode="&#x13d;" horiz-adv-x="1075" 
d="M160 0v1454h172v-1296h647v-158h-819zM485 1155l39 365h148l-74 -365h-113z" />
    <glyph glyph-name="lcaron" unicode="&#x13e;" horiz-adv-x="450" 
d="M143 1520h164v-1520h-164v1520zM573 1155h-112l39 365h147z" />
    <glyph glyph-name="Lslash" unicode="&#x141;" horiz-adv-x="1095" 
d="M-2 377v164l182 135v778h172v-649l277 205v-164l-277 -205v-483h647v-158h-819v512z" />
    <glyph glyph-name="lslash" unicode="&#x142;" horiz-adv-x="495" 
d="M4 500v151l162 121v748h164v-623l162 121v-152l-162 -121v-745h-164v621z" />
    <glyph glyph-name="Nacute" unicode="&#x143;" horiz-adv-x="1449" 
d="M160 0v1454h151l811 -1165v1165h168v-1454h-151l-811 1165v-1165h-168zM731 1616h-184l278 248h222z" />
    <glyph glyph-name="nacute" unicode="&#x144;" horiz-adv-x="1173" 
d="M307 0h-164v1057h148l8 -168q50 95 141.5 146.5t200.5 51.5q99 0 176.5 -37t124.5 -102t71.5 -148.5t24.5 -181.5v-618h-164v608q0 54 -8.5 101t-28 90t-49.5 73t-75.5 48t-102.5 18q-135 0 -219 -87t-84 -224v-627zM602 1227h-164l244 293h195z" />
    <glyph glyph-name="uni0145" unicode="&#x145;" horiz-adv-x="1449" 
d="M328 0h-168v1454h151l811 -1165v1165h168v-1454h-151l-811 1165v-1165zM608 -236q0 41 30 67t73 26q38 0 65 -21q62 -42 62 -129q0 -81 -49.5 -139t-129.5 -88l-38 88q104 51 104 121q-18 -11 -39 -11q-34 0 -56 25.5t-22 60.5z" />
    <glyph glyph-name="uni0146" unicode="&#x146;" horiz-adv-x="1173" 
d="M143 1057h148l8 -168q50 95 141.5 146.5t200.5 51.5q99 0 176.5 -37t124.5 -102t71.5 -148.5t24.5 -181.5v-618h-164v608q0 54 -8.5 101t-28 90t-49.5 73t-75.5 48t-102.5 18q-135 0 -219 -87t-84 -224v-627h-164v1057zM479 -209q0 38 29 64q26 26 72 26q37 0 63 -20
q62 -42 62 -129q0 -80 -48.5 -139.5t-126.5 -88.5l-38 90q104 49 104 123q-17 -10 -39 -10q-32 0 -55 23q-23 26 -23 61z" />
    <glyph glyph-name="Ncaron" unicode="&#x147;" horiz-adv-x="1449" 
d="M328 0h-168v1454h151l811 -1165v1165h168v-1454h-151l-811 1165v-1165zM348 1864h184l195 -146l193 146h180l-291 -248h-170z" />
    <glyph glyph-name="ncaron" unicode="&#x148;" horiz-adv-x="1173" 
d="M143 1057h148l8 -168q50 95 141.5 146.5t200.5 51.5q99 0 176.5 -37t124.5 -102t71.5 -148.5t24.5 -181.5v-618h-164v608q0 54 -8.5 101t-28 90t-49.5 73t-75.5 48t-102.5 18q-135 0 -219 -87t-84 -224v-627h-164v1057zM520 1227l-250 293h160l162 -177l164 177h155
l-249 -293h-142z" />
    <glyph glyph-name="Eng" unicode="&#x14a;" horiz-adv-x="1449" 
d="M328 0h-168v1454h151l811 -1165v1165h168v-1507q0 -175 -96 -284t-272 -109q-133 0 -238 77l61 129q31 -26 77 -40.5t89 -14.5q102 0 156.5 69t54.5 175v74l-794 1142v-1165z" />
    <glyph glyph-name="eng" unicode="&#x14b;" horiz-adv-x="1173" 
d="M143 1057h148l8 -168q50 95 141.5 146.5t200.5 51.5q99 0 176.5 -37t124.5 -102t71.5 -148.5t24.5 -181.5v-731q0 -141 -81.5 -233t-223.5 -92q-103 0 -176 47l51 127q42 -18 51 -21q24 -8 60 -8q77 0 116 51.5t39 132.5v717q0 54 -8.5 101t-28 90t-49.5 73t-75.5 48
t-102.5 18q-135 0 -219 -87t-84 -224v-627h-164v1057z" />
    <glyph glyph-name="Ohungarumlaut" unicode="&#x150;" horiz-adv-x="1634" 
d="M106 725q0 124 31.5 239t93.5 211t147.5 168t199.5 112t243 40q159 0 293 -60t224 -164t140 -244.5t50 -299.5q0 -124 -31.5 -239t-93.5 -211t-147.5 -168t-199.5 -112t-243 -40q-209 0 -372 104t-249 278.5t-86 385.5zM817 1337q-122 0 -224.5 -50t-169 -134.5
t-103.5 -194.5t-37 -231q0 -119 36 -228t101.5 -195t168.5 -137.5t228 -51.5q123 0 225.5 50t169.5 134.5t103.5 195t36.5 232.5q0 119 -35.5 228t-101.5 194.5t-169 136.5t-229 51zM1024 1616h-176l291 248h213zM467 1616l291 248h213l-328 -248h-176z" />
    <glyph glyph-name="ohungarumlaut" unicode="&#x151;" horiz-adv-x="1228" 
d="M612 -31q-152 0 -272 75.5t-185 203t-65 280.5q0 151 64.5 278t186 204t275.5 77q153 0 273.5 -75t185 -202t64.5 -282q0 -113 -38 -215t-105.5 -178t-167 -121t-216.5 -45zM258 528q0 -184 102 -292q47 -56 113.5 -86.5t140.5 -30.5q162 0 259.5 120t97.5 289
q0 177 -101 295q-109 115 -256 115q-108 0 -191 -58.5t-124 -151t-41 -200.5zM813 1227h-147l204 293h179zM500 1227h-148l205 293h178z" />
    <glyph glyph-name="OE" unicode="&#x152;" horiz-adv-x="2123" 
d="M106 723q0 221 97 387.5t270.5 255t400.5 88.5h1098v-154h-645v-466h588v-156h-588v-522h666v-156h-1116q-219 0 -392 82.5t-276 248.5t-103 392zM881 1296q-266 0 -432 -150t-166 -419q0 -262 164 -415.5t434 -153.5h274v1138h-274z" />
    <glyph glyph-name="oe" unicode="&#x153;" horiz-adv-x="2009" 
d="M90 528q0 111 36 212t101 178t162.5 123t212.5 46q136 0 248.5 -64t181.5 -181q66 116 172.5 179.5t239.5 63.5q106 0 196.5 -42t151 -113t94 -166t33.5 -201v-67h-801q5 -103 45 -188t119.5 -139t185.5 -54q185 0 291 166l139 -64q-63 -122 -175.5 -185t-254.5 -63
q-137 0 -253.5 63.5t-184.5 180.5q-69 -117 -181.5 -180.5t-248.5 -63.5q-113 0 -209.5 45t-162 121.5t-102 178t-36.5 214.5zM604 938q-107 0 -187.5 -59.5t-119.5 -151.5t-39 -199q0 -62 14 -120.5t42.5 -111t69 -92t97.5 -62.5t123 -23q108 0 188.5 59t119 150.5
t38.5 199.5q0 78 -22.5 150.5t-64.5 131t-109 93.5t-150 35zM1444 946q-129 0 -212.5 -93.5t-105.5 -229.5h621q-13 136 -92 229.5t-211 93.5z" />
    <glyph glyph-name="Racute" unicode="&#x154;" horiz-adv-x="1228" 
d="M160 0v1454h395q84 0 161 -15t147 -48.5t121 -83.5t81.5 -124t30.5 -165q0 -139 -75.5 -243.5t-207.5 -156.5l352 -618h-200l-316 573q-61 -6 -123 -6q-87 0 -194 17v-584h-172zM332 1300v-563q88 -16 200 -16q76 0 141.5 14.5t123 46t90.5 90t33 138.5q0 78 -30 135.5
t-82 90.5t-115 48.5t-138 15.5h-223zM369 1616l278 248h221l-315 -248h-184z" />
    <glyph glyph-name="racute" unicode="&#x155;" horiz-adv-x="768" 
d="M143 1057h148l10 -197q41 100 117.5 155.5t181.5 55.5q28 0 64 -4q30 -7 47 -14l-21 -156q-36 14 -96 14q-139 0 -213 -102t-74 -248v-561h-164v1057zM438 1227h-164l244 293h195z" />
    <glyph glyph-name="Rcaron" unicode="&#x158;" horiz-adv-x="1228" 
d="M160 1454h395q84 0 161 -15t147 -48.5t121 -83.5t81.5 -124t30.5 -165q0 -139 -75.5 -243.5t-207.5 -156.5l352 -618h-200l-316 573q-61 -6 -123 -6q-87 0 -194 17v-584h-172v1454zM555 1300h-223v-563q88 -16 200 -16q76 0 141.5 14.5t123 46t90.5 90t33 138.5
q0 78 -30 135.5t-82 90.5t-115 48.5t-138 15.5zM170 1864h184l195 -146l192 146h181l-291 -248h-170z" />
    <glyph glyph-name="rcaron" unicode="&#x159;" horiz-adv-x="768" 
d="M307 0h-164v1057h148l10 -197q41 100 117.5 155.5t181.5 55.5q28 0 64 -4q30 -7 47 -14l-21 -156q-36 14 -96 14q-139 0 -213 -102t-74 -248v-561zM356 1227l-250 293h160l162 -177l164 177h156l-250 -293h-142z" />
    <glyph glyph-name="Sacute" unicode="&#x15a;" horiz-adv-x="1128" 
d="M74 297l162 51q38 -104 124.5 -164.5t198.5 -60.5q127 0 218 74.5t91 199.5q0 199 -266 258l-90 21q-401 93 -401 399q0 121 61 215.5t162.5 144.5t222.5 50q163 0 288.5 -86t174.5 -240l-162 -51q-39 104 -116.5 163.5t-184.5 59.5q-113 0 -192.5 -66t-79.5 -178
q0 -57 24 -101t68.5 -72.5t88.5 -45.5t101 -30l90 -21q176 -42 280.5 -141t104.5 -268q0 -197 -138.5 -318t-342.5 -121q-167 0 -301 86.5t-186 241.5zM569 1616h-184l279 248h221z" />
    <glyph glyph-name="sacute" unicode="&#x15b;" horiz-adv-x="946" 
d="M74 223l147 53q39 -77 105 -120t151 -43q88 0 158 45t70 129q0 132 -193 172l-80 16q-328 67 -328 297q0 149 108.5 232t264.5 83q133 0 233.5 -64t145.5 -187l-147 -50q-34 75 -93 119q-62 41 -141 41q-80 0 -143.5 -40.5t-63.5 -117.5q0 -33 14 -59.5t34 -43.5
t50.5 -30t56.5 -19.5t58 -12.5l80 -17q65 -13 118.5 -35.5t98 -58t69.5 -89t25 -120.5q0 -79 -33 -143.5t-88.5 -105.5t-126 -63t-147.5 -22q-135 0 -244 66t-159 188zM485 1227h-163l243 293h195z" />
    <glyph glyph-name="Scedilla" unicode="&#x15e;" horiz-adv-x="1128" 
d="M74 297l162 51q38 -104 124.5 -164.5t198.5 -60.5q127 0 218 74.5t91 199.5q0 199 -266 258l-90 21q-401 93 -401 399q0 121 61 215.5t162.5 144.5t222.5 50q163 0 288.5 -86t174.5 -240l-162 -51q-39 104 -116.5 163.5t-184.5 59.5q-113 0 -192.5 -66t-79.5 -178
q0 -57 24 -101t68.5 -72.5t88.5 -45.5t101 -30l90 -21q176 -42 280.5 -141t104.5 -268q0 -180 -118.5 -301t-302.5 -136l-25 -88q64 -13 110 -58t46 -108q0 -107 -115 -163q-61 -23 -125 -23q-91 0 -164 31l31 112q34 -12 65 -18q36 -4 56 -4q45 0 75 18q29 23 29 54
q0 79 -151 79l49 168q-152 18 -267 102t-161 224z" />
    <glyph glyph-name="scedilla" unicode="&#x15f;" horiz-adv-x="946" 
d="M410 -27q-112 12 -203.5 79.5t-132.5 170.5l147 53q39 -77 105 -120t151 -43q88 0 158 45t70 129q0 132 -193 172l-80 16q-328 67 -328 297q0 149 108.5 232t264.5 83q133 0 233.5 -64t145.5 -187l-147 -50q-34 75 -93 119q-62 41 -141 41q-80 0 -143.5 -40.5
t-63.5 -117.5q0 -33 14 -59.5t34 -43.5t50.5 -30t56.5 -19.5t58 -12.5l80 -17q65 -13 118.5 -35.5t98 -58t69.5 -89t25 -120.5q0 -142 -99 -229t-249 -103l-20 -75q64 -13 109.5 -58t45.5 -108q0 -89 -71.5 -137t-165.5 -48q-84 0 -154 31l31 109q65 -21 113 -21q46 0 75 19
q27 21 27 53q0 80 -149 80z" />
    <glyph glyph-name="Scaron" unicode="&#x160;" horiz-adv-x="1128" 
d="M74 297l162 51q38 -104 124.5 -164.5t198.5 -60.5q127 0 218 74.5t91 199.5q0 199 -266 258l-90 21q-401 93 -401 399q0 121 61 215.5t162.5 144.5t222.5 50q163 0 288.5 -86t174.5 -240l-162 -51q-39 104 -116.5 163.5t-184.5 59.5q-113 0 -192.5 -66t-79.5 -178
q0 -57 24 -101t68.5 -72.5t88.5 -45.5t101 -30l90 -21q176 -42 280.5 -141t104.5 -268q0 -197 -138.5 -318t-342.5 -121q-167 0 -301 86.5t-186 241.5zM186 1864h185l194 -146l193 146h180l-291 -248h-170z" />
    <glyph glyph-name="scaron" unicode="&#x161;" horiz-adv-x="946" 
d="M74 223l147 53q39 -77 105 -120t151 -43q88 0 158 45t70 129q0 132 -193 172l-80 16q-328 67 -328 297q0 149 108.5 232t264.5 83q133 0 233.5 -64t145.5 -187l-147 -50q-34 75 -93 119q-62 41 -141 41q-80 0 -143.5 -40.5t-63.5 -117.5q0 -33 14 -59.5t34 -43.5
t50.5 -30t56.5 -19.5t58 -12.5l80 -17q65 -13 118.5 -35.5t98 -58t69.5 -89t25 -120.5q0 -79 -33 -143.5t-88.5 -105.5t-126 -63t-147.5 -22q-135 0 -244 66t-159 188zM403 1227l-249 293h159l162 -177l164 177h156l-250 -293h-142z" />
    <glyph glyph-name="Tcaron" unicode="&#x164;" horiz-adv-x="1257" 
d="M98 1296v158h1061v-158h-444v-1296h-172v1296h-445zM254 1864h184l195 -146l192 146h181l-291 -248h-170z" />
    <glyph glyph-name="tcaron" unicode="&#x165;" horiz-adv-x="835" 
d="M33 918v139h194v354h164v-354h332v-139h-332v-603q0 -87 39 -142.5t123 -55.5q92 0 166 49l49 -127q-100 -70 -229 -70q-151 0 -231.5 91t-80.5 247v611h-194zM694 1206h-112l32 314h148z" />
    <glyph glyph-name="Tbar" unicode="&#x166;" horiz-adv-x="1257" 
d="M98 1296v158h1061v-158h-444v-516h266v-137h-266v-643h-172v643h-267v137h267v516h-445z" />
    <glyph glyph-name="tbar" unicode="&#x167;" horiz-adv-x="835" 
d="M227 918h-194v139h194v354h164v-354h332v-139h-332v-297h311v-125h-311v-181q0 -87 39 -142.5t123 -55.5q92 0 166 49l49 -127q-100 -70 -229 -70q-151 0 -231.5 91t-80.5 247v189h-174v125h174v297z" />
    <glyph glyph-name="Utilde" unicode="&#x168;" horiz-adv-x="1429" 
d="M713 -41q-265 0 -419.5 165.5t-154.5 438.5v891h172v-885q0 -94 25.5 -175.5t74 -143.5t127 -97.5t177.5 -35.5q193 0 298 125.5t105 326.5v885h172v-891q0 -130 -39 -240.5t-111.5 -191.5t-182 -126.5t-244.5 -45.5zM348 1624q13 98 70 164.5t151 66.5q76 0 158 -53
q43 -30 61 -39q32 -16 62 -16q36 0 63 27q28 25 37 71h129q-13 -99 -68.5 -165t-150.5 -66q-81 0 -158 55q-51 31 -63 37q-32 16 -61 16q-37 0 -64 -24q-28 -28 -37 -74h-129z" />
    <glyph glyph-name="utilde" unicode="&#x169;" horiz-adv-x="1155" 
d="M135 459v598h164v-600q0 -67 16.5 -126.5t49 -107.5t87.5 -76t126 -28q95 0 159 47.5t91.5 121.5t27.5 169v600h164v-598q0 -138 -49.5 -247t-152.5 -176t-245 -67q-210 0 -324 135.5t-114 354.5zM256 1227q12 96 60 161.5t137 65.5q75 0 141 -51q34 -26 53 -37
q26 -16 49 -16q62 0 80 96h125q-12 -98 -59 -162.5t-137 -64.5q-70 0 -140 53q-25 20 -53 37q-25 14 -51 14q-62 0 -80 -96h-125z" />
    <glyph glyph-name="Umacron" unicode="&#x16a;" horiz-adv-x="1429" 
d="M713 -41q-265 0 -419.5 165.5t-154.5 438.5v891h172v-885q0 -94 25.5 -175.5t74 -143.5t127 -97.5t177.5 -35.5q193 0 298 125.5t105 326.5v885h172v-891q0 -130 -39 -240.5t-111.5 -191.5t-182 -126.5t-244.5 -45.5zM1053 1626h-680v133h680v-133z" />
    <glyph glyph-name="umacron" unicode="&#x16b;" horiz-adv-x="1155" 
d="M135 459v598h164v-600q0 -67 16.5 -126.5t49 -107.5t87.5 -76t126 -28q95 0 159 47.5t91.5 121.5t27.5 169v600h164v-598q0 -138 -49.5 -247t-152.5 -176t-245 -67q-210 0 -324 135.5t-114 354.5zM279 1382h598v-131h-598v131z" />
    <glyph glyph-name="Uring" unicode="&#x16e;" horiz-adv-x="1429" 
d="M713 -41q-265 0 -419.5 165.5t-154.5 438.5v891h172v-885q0 -94 25.5 -175.5t74 -143.5t127 -97.5t177.5 -35.5q193 0 298 125.5t105 326.5v885h172v-891q0 -130 -39 -240.5t-111.5 -191.5t-182 -126.5t-244.5 -45.5zM506 1739q0 84 61 142t146 58q86 0 146.5 -57
t60.5 -143q0 -84 -61 -142.5t-146 -58.5q-83 0 -145 59.5t-62 141.5zM616 1739q0 -40 28.5 -69.5t68.5 -29.5q39 0 67.5 29.5t28.5 69.5t-28 69t-68 29t-68.5 -29t-28.5 -69z" />
    <glyph glyph-name="uring" unicode="&#x16f;" horiz-adv-x="1155" 
d="M135 459v598h164v-600q0 -67 16.5 -126.5t49 -107.5t87.5 -76t126 -28q95 0 159 47.5t91.5 121.5t27.5 169v600h164v-598q0 -138 -49.5 -247t-152.5 -176t-245 -67q-210 0 -324 135.5t-114 354.5zM578 1171q-85 0 -146 58t-61 143t60.5 143t146.5 58t146 -57t60 -144
q0 -86 -59.5 -143.5t-146.5 -57.5zM578 1475q-42 0 -71.5 -30.5t-29.5 -72.5q0 -44 31 -72q27 -30 70 -30q42 0 71 30t29 72t-29 74q-32 29 -71 29z" />
    <glyph glyph-name="Uhungarumlaut" unicode="&#x170;" horiz-adv-x="1429" 
d="M713 -41q-265 0 -419.5 165.5t-154.5 438.5v891h172v-885q0 -94 25.5 -175.5t74 -143.5t127 -97.5t177.5 -35.5q193 0 298 125.5t105 326.5v885h172v-891q0 -130 -39 -240.5t-111.5 -191.5t-182 -126.5t-244.5 -45.5zM920 1616h-177l291 248h213zM539 1616h-177l291 248
h213z" />
    <glyph glyph-name="uhungarumlaut" unicode="&#x171;" horiz-adv-x="1155" 
d="M135 459v598h164v-600q0 -67 16.5 -126.5t49 -107.5t87.5 -76t126 -28q95 0 159 47.5t91.5 121.5t27.5 169v600h164v-598q0 -138 -49.5 -247t-152.5 -176t-245 -67q-210 0 -324 135.5t-114 354.5zM776 1227h-147l205 293h178zM315 1227l205 293h178l-235 -293h-148z" />
    <glyph glyph-name="Uogonek" unicode="&#x172;" horiz-adv-x="1429" 
d="M713 -41q-265 0 -419.5 165.5t-154.5 438.5v891h172v-885q0 -94 25.5 -175.5t74 -143.5t127 -97.5t177.5 -35.5q193 0 298 125.5t105 326.5v885h172v-891q0 -149 -51 -275t-160 -210q-172 -182 -172 -303q0 -41 25 -66q21 -24 63 -24q60 0 105 20l28 -113
q-78 -34 -159 -34q-92 0 -149.5 50.5t-57.5 141.5q0 106 98 225q-72 -16 -147 -16z" />
    <glyph glyph-name="uogonek" unicode="&#x173;" horiz-adv-x="1155" 
d="M135 1057h164v-600q0 -67 16.5 -126.5t49 -107.5t87.5 -76t126 -28q95 0 159 47.5t91.5 121.5t27.5 169v600h164v-598q0 -228 -127 -363q-209 -198 -209 -323q0 -42 27 -66q28 -22 75 -22q53 0 91 20l28 -108q-74 -33 -145 -33q-93 0 -155 47t-62 137q0 108 110 227
q-41 -6 -80 -6q-210 0 -324 135.5t-114 354.5v598z" />
    <glyph glyph-name="Wcircumflex" unicode="&#x174;" horiz-adv-x="2064" 
d="M70 1454h186l342 -1233l348 1233h176l353 -1233l342 1233h178l-436 -1454h-177l-350 1237l-348 -1237h-178zM836 1616h-181l291 248h170l291 -248h-184l-193 145z" />
    <glyph glyph-name="wcircumflex" unicode="&#x175;" horiz-adv-x="1632" 
d="M37 1057h172l264 -856l272 856h148l270 -856l264 856h168l-356 -1057h-158l-264 846l-266 -846h-158zM496 1227l249 293h142l250 -293h-160l-162 176l-164 -176h-155z" />
    <glyph glyph-name="Ycircumflex" unicode="&#x176;" horiz-adv-x="1269" 
d="M37 1454h196l404 -713l403 713h193l-512 -868v-586h-172v586zM260 1616l291 248h170l291 -248h-185l-192 145l-195 -145h-180z" />
    <glyph glyph-name="ycircumflex" unicode="&#x177;" horiz-adv-x="1071" 
d="M37 1057h180l338 -869l305 869h174l-471 -1223q-101 -272 -330 -272q-84 0 -155 39l47 131q48 -25 100 -25q130 0 195 166l55 137zM215 1227l250 293h141l250 -293h-160l-161 176l-164 -176h-156z" />
    <glyph glyph-name="Ydieresis" unicode="&#x178;" horiz-adv-x="1269" 
d="M549 586l-512 868h196l404 -713l403 713h193l-512 -868v-586h-172v586zM780 1649q-32 28 -32 75q0 46 32 77.5t78 31.5q44 0 80 -31q31 -36 31 -78q0 -45 -32.5 -76.5t-78.5 -31.5q-49 0 -78 33zM303 1724q0 46 32.5 77.5t78.5 31.5q44 0 80 -31q30 -34 30 -78
q0 -46 -32 -77t-78 -31q-49 0 -78 33q-33 29 -33 75z" />
    <glyph glyph-name="Zacute" unicode="&#x179;" horiz-adv-x="1261" 
d="M96 0v131l805 1167h-774v156h993v-131l-805 -1167h850v-156h-1069zM449 1616l278 248h221l-315 -248h-184z" />
    <glyph glyph-name="zacute" unicode="&#x17a;" horiz-adv-x="1015" 
d="M90 0v115l598 803h-584v139h787v-113l-602 -805h637v-139h-836zM344 1227l244 293h194l-274 -293h-164z" />
    <glyph glyph-name="Zdotaccent" unicode="&#x17b;" horiz-adv-x="1261" 
d="M96 131l805 1167h-774v156h993v-131l-805 -1167h850v-156h-1069v131zM625 1616q-46 0 -81.5 34.5t-35.5 80.5q0 47 34.5 80.5t82.5 33.5t82 -32.5t34 -81.5q0 -47 -34.5 -81t-81.5 -34z" />
    <glyph glyph-name="zdotaccent" unicode="&#x17c;" horiz-adv-x="1015" 
d="M926 0h-836v115l598 803h-584v139h787v-113l-602 -805h637v-139zM383 1366q0 46 33.5 79.5t79.5 33.5q48 0 80 -32t32 -81q0 -46 -33 -79.5t-79 -33.5q-44 0 -78.5 34.5t-34.5 78.5z" />
    <glyph glyph-name="Zcaron" unicode="&#x17d;" horiz-adv-x="1261" 
d="M96 0v131l805 1167h-774v156h993v-131l-805 -1167h850v-156h-1069zM250 1864h184l195 -146l192 146h180l-290 -248h-170z" />
    <glyph glyph-name="zcaron" unicode="&#x17e;" horiz-adv-x="1015" 
d="M90 0v115l598 803h-584v139h787v-113l-602 -805h637v-139h-836zM176 1520h160l162 -177l164 177h155l-250 -293h-141z" />
    <glyph glyph-name="uni0218" unicode="&#x218;" horiz-adv-x="1128" 
d="M561 -31q-167 0 -301 86.5t-186 241.5l162 51q38 -104 124.5 -164.5t198.5 -60.5q127 0 218 74.5t91 199.5q0 199 -266 258l-90 21q-401 93 -401 399q0 121 61 215.5t162.5 144.5t222.5 50q163 0 288.5 -86t174.5 -240l-162 -51q-39 104 -116.5 163.5t-184.5 59.5
q-113 0 -192.5 -66t-79.5 -178q0 -57 24 -101t68.5 -72.5t88.5 -45.5t101 -30l90 -21q176 -42 280.5 -141t104.5 -268q0 -197 -138.5 -318t-342.5 -121zM442 -236q0 41 30 67t73 26q38 0 65 -21q62 -42 62 -129q0 -81 -49 -139t-129 -88l-39 88q104 51 104 121
q-18 -11 -39 -11q-34 0 -56 25.5t-22 60.5z" />
    <glyph glyph-name="uni0219" unicode="&#x219;" horiz-adv-x="946" 
d="M477 -31q-135 0 -244 66t-159 188l147 53q39 -77 105 -120t151 -43q88 0 158 45t70 129q0 132 -193 172l-80 16q-328 67 -328 297q0 149 108.5 232t264.5 83q133 0 233.5 -64t145.5 -187l-147 -50q-34 75 -93 119q-62 41 -141 41q-80 0 -143.5 -40.5t-63.5 -117.5
q0 -33 14 -59.5t34 -43.5t50.5 -30t56.5 -19.5t58 -12.5l80 -17q65 -13 118.5 -35.5t98 -58t69.5 -89t25 -120.5q0 -79 -33 -143.5t-88.5 -105.5t-126 -63t-147.5 -22zM365 -209q0 39 28 64q26 26 72 26q37 0 63 -20q62 -42 62 -129q0 -80 -48.5 -139.5t-125.5 -88.5l-39 90
q104 49 104 123q-17 -10 -39 -10q-32 0 -55 23q-22 25 -22 61z" />
    <glyph glyph-name="uni021A" unicode="&#x21a;" horiz-adv-x="1257" 
d="M98 1454h1061v-158h-444v-1296h-172v1296h-445v158zM592 -322q-34 0 -56 25.5t-22 60.5q0 42 29.5 67.5t72.5 25.5q39 0 66 -21q61 -41 61 -129q0 -81 -49 -139t-129 -88l-39 88q105 51 105 121q-18 -11 -39 -11z" />
    <glyph glyph-name="uni021B" unicode="&#x21b;" horiz-adv-x="835" 
d="M33 918v139h194v354h164v-354h332v-139h-332v-603q0 -87 39 -142.5t123 -55.5q92 0 166 49l49 -127q-100 -70 -229 -70q-151 0 -231.5 91t-80.5 247v611h-194zM379 -209q0 38 29 64q26 26 71 26q38 0 64 -20q61 -41 61 -129q0 -80 -48.5 -139.5t-125.5 -88.5l-39 90
q105 49 105 123q-17 -10 -39 -10q-33 0 -56 23q-22 25 -22 61z" />
    <glyph glyph-name="uni0237" unicode="&#x237;" horiz-adv-x="460" 
d="M-154 -391l52 127q3 -1 19.5 -9t27.5 -12q24 -8 59 -8q75 0 112.5 53.5t37.5 130.5v1166h163v-1170q0 -139 -79.5 -232t-219.5 -93q-99 0 -172 47z" />
    <glyph glyph-name="circumflex" unicode="&#x2c6;" horiz-adv-x="1173" 
d="M266 1227l250 293h141l250 -293h-159l-162 176l-164 -176h-156z" />
    <glyph glyph-name="caron" unicode="&#x2c7;" horiz-adv-x="1173" 
d="M266 1520h160l162 -177l164 177h155l-250 -293h-141z" />
    <glyph glyph-name="uni02C9" unicode="&#x2c9;" horiz-adv-x="1173" 
d="M287 1251v131h598v-131h-598z" />
    <glyph glyph-name="uni02CB" unicode="&#x2cb;" horiz-adv-x="1173" 
d="M641 1227l-274 293h194l244 -293h-164z" />
    <glyph glyph-name="breve" unicode="&#x2d8;" horiz-adv-x="1173" 
d="M279 1485h139q15 -65 58 -101t110 -36t110 36t58 101h139q-24 -120 -104 -190t-203 -70q-121 0 -202.5 69.5t-104.5 190.5z" />
    <glyph glyph-name="dotaccent" unicode="&#x2d9;" horiz-adv-x="1173" 
d="M473 1366q0 46 33.5 79.5t79.5 33.5q48 0 80 -32t32 -81q0 -46 -33 -79.5t-79 -33.5q-44 0 -78.5 34.5t-34.5 78.5z" />
    <glyph glyph-name="ring" unicode="&#x2da;" horiz-adv-x="1173" 
d="M379 1372q0 85 60.5 143t146.5 58t146.5 -57.5t60.5 -143.5t-60 -143.5t-147 -57.5q-85 0 -146 58t-61 143zM485 1372q0 -44 31 -72q27 -30 70 -30q42 0 71 30t29 72t-29 74q-32 29 -71 29q-42 0 -71.5 -30.5t-29.5 -72.5z" />
    <glyph glyph-name="ogonek" unicode="&#x2db;" horiz-adv-x="1173" 
d="M432 -352q-26 39 -26 92q0 46 21 91t61 86.5t71.5 68.5t77.5 61l104 -47q-194 -148 -194 -240q0 -37 23.5 -56t60.5 -19q63 0 108 20l29 -108q-97 -33 -162 -33q-53 0 -101 21.5t-73 62.5z" />
    <glyph glyph-name="tilde" unicode="&#x2dc;" horiz-adv-x="1173" 
d="M264 1227q12 96 60 161.5t137 65.5q75 0 141 -51q34 -26 53 -37q26 -16 50 -16q61 0 79 96h125q-12 -98 -59 -162.5t-137 -64.5q-70 0 -140 53q-25 20 -53 37q-25 14 -51 14q-62 0 -80 -96h-125z" />
    <glyph glyph-name="hungarumlaut" unicode="&#x2dd;" horiz-adv-x="1173" 
d="M551 1227l205 293h178l-236 -293h-147zM385 1227h-147l204 293h179z" />
    <glyph glyph-name="gravecomb" unicode="&#x300;" 
d="M-12 1227l-275 293h195l244 -293h-164z" />
    <glyph glyph-name="acutecomb" unicode="&#x301;" 
d="M-152 1227l244 293h195l-275 -293h-164z" />
    <glyph glyph-name="uni0302" unicode="&#x302;" 
d="M-319 1227l249 293h142l250 -293h-160l-162 176l-164 -176h-155z" />
    <glyph glyph-name="tildecomb" unicode="&#x303;" 
d="M-322 1227q12 96 60 161.5t137 65.5q42 0 72 -12t69 -39q31 -24 54 -37q26 -16 49 -16q62 0 80 96h125q-12 -98 -59.5 -162.5t-137.5 -64.5q-67 0 -141 53q-32 25 -54 37q-22 14 -49 14q-62 0 -80 -96h-125z" />
    <glyph glyph-name="uni0304" unicode="&#x304;" 
d="M-299 1251v131h598v-131h-598z" />
    <glyph glyph-name="uni0306" unicode="&#x306;" 
d="M-307 1485h139q15 -65 58 -101t110 -36t110 36t58 101h139q-24 -120 -104 -190t-203 -70q-121 0 -202.5 69.5t-104.5 190.5z" />
    <glyph glyph-name="uni0307" unicode="&#x307;" 
d="M-113 1366q0 48 32 80.5t81 32.5q48 0 80.5 -32t32.5 -81q0 -46 -33.5 -79.5t-79.5 -33.5t-79.5 33.5t-33.5 79.5z" />
    <glyph glyph-name="uni0308" unicode="&#x308;" 
d="M86 1366q0 46 31.5 76.5t77.5 30.5t77 -30.5t31 -76.5t-31 -76t-77 -30t-77.5 30.5t-31.5 75.5zM-195 1260q-46 0 -77 30t-31 76t31 76.5t77 30.5t77.5 -30.5t31.5 -76.5q0 -45 -31.5 -75.5t-77.5 -30.5z" />
    <glyph glyph-name="uni030A" unicode="&#x30a;" 
d="M-207 1372q0 87 59.5 144t147.5 57q86 0 146.5 -57.5t60.5 -143.5t-60 -143.5t-147 -57.5q-86 0 -146.5 57.5t-60.5 143.5zM-100 1372q0 -42 29 -72t71 -30t71 30t29 72q0 43 -28 74q-32 29 -72 29t-72 -29q-28 -31 -28 -74z" />
    <glyph glyph-name="uni030B" unicode="&#x30b;" 
d="M51 1227l205 293h178l-235 -293h-148zM-115 1227h-147l205 293h178z" />
    <glyph glyph-name="uni030C" unicode="&#x30c;" 
d="M-319 1520h159l162 -177l164 177h156l-250 -293h-142z" />
    <glyph glyph-name="uni0312" unicode="&#x312;" 
d="M-111 1339q0 80 48.5 139.5t125.5 88.5l39 -90q-40 -17 -72 -51t-32 -72q17 10 39 10q32 0 55 -23q23 -26 23 -61q0 -39 -27 -63q-27 -27 -74 -27q-37 0 -63 20q-62 42 -62 129z" />
    <glyph glyph-name="uni0315" unicode="&#x315;" 
d="M154 1155l39 365h147l-74 -365h-112z" />
    <glyph glyph-name="dotbelowcomb" unicode="&#x323;" 
d="M-113 -309q0 46 33.5 79t79.5 33t79.5 -33t33.5 -79q0 -48 -32 -80.5t-81 -32.5q-48 0 -80.5 32t-32.5 81z" />
    <glyph glyph-name="uni0326" unicode="&#x326;" 
d="M-111 -209q0 40 27 64q26 26 74 26q37 0 63 -20q62 -42 62 -129q0 -80 -48.5 -139.5t-125.5 -88.5l-39 90q40 17 72 51t32 72q-17 -10 -39 -10q-32 0 -55 23q-23 26 -23 61z" />
    <glyph glyph-name="uni0327" unicode="&#x327;" 
d="M-53 -455q-84 0 -154 31l31 109q65 -21 113 -21q43 0 75 19q27 21 27 53q0 80 -150 80l60 207h114l-34 -127q64 -13 109.5 -58t45.5 -108q0 -89 -71.5 -137t-165.5 -48z" />
    <glyph glyph-name="uni0328" unicode="&#x328;" 
d="M-311 -352q-25 42 -25 92q0 37 16 75.5t37.5 68t57 63t60.5 53.5t61 47l104 -47q-195 -149 -195 -240q0 -37 23.5 -56t60.5 -19q64 0 109 20l29 -108q-97 -33 -162 -33q-118 0 -176 84z" />
    <glyph glyph-name="uni0E3F" unicode="&#xe3f;" horiz-adv-x="1216" 
d="M172 0v1413h369v256h118v-258q83 -4 153.5 -27t126 -65.5t87 -110.5t31.5 -155q0 -101 -47.5 -181t-137.5 -120q121 -41 183.5 -134t62.5 -223q0 -94 -37.5 -169.5t-102 -122.5t-145.5 -73t-174 -30v-287h-118v287h-369zM659 670v-527q128 6 208.5 73t80.5 190
q0 127 -78.5 192.5t-210.5 71.5zM541 670h-207v-527h207v527zM541 1270h-207v-461h207v461zM659 1268v-457q106 9 167 66t61 161t-61 162.5t-167 67.5z" />
    <glyph glyph-name="uni1E24" unicode="&#x1e24;" horiz-adv-x="1470" 
d="M160 1454h172v-618h807v618h172v-1454h-172v678h-807v-678h-172v1454zM616 -322q0 46 35.5 80.5t81.5 34.5t81.5 -34t35.5 -81t-34.5 -80.5t-82.5 -33.5t-82.5 32.5t-34.5 81.5z" />
    <glyph glyph-name="uni1E25" unicode="&#x1e25;" horiz-adv-x="1173" 
d="M143 0v1520h164v-617q50 90 139 137t195 47q99 0 176.5 -37t124.5 -102t71.5 -148.5t24.5 -181.5v-618h-164v608q0 54 -8.5 101t-28 90t-49.5 73t-75.5 48t-102.5 18q-135 0 -219 -87t-84 -224v-627h-164zM477 -309q0 44 34.5 78t78.5 34q46 0 79 -33t33 -79
q0 -48 -31.5 -80.5t-80.5 -32.5q-46 0 -79.5 33.5t-33.5 79.5z" />
    <glyph glyph-name="uni1E36" unicode="&#x1e36;" horiz-adv-x="1075" 
d="M160 0v1454h172v-1296h647v-158h-819zM451 -322q0 46 35 80.5t81 34.5t81.5 -34t35.5 -81t-34.5 -80.5t-82.5 -33.5t-82 32.5t-34 81.5z" />
    <glyph glyph-name="uni1E37" unicode="&#x1e37;" horiz-adv-x="450" 
d="M307 0h-164v1520h164v-1520zM223 -422q-46 0 -79 33.5t-33 79.5q0 44 34 78t78 34q46 0 79.5 -33t33.5 -79q0 -48 -32 -80.5t-81 -32.5z" />
    <glyph glyph-name="Wgrave" unicode="&#x1e80;" horiz-adv-x="2064" 
d="M70 1454h186l342 -1233l348 1233h176l353 -1233l342 1233h178l-436 -1454h-177l-350 1237l-348 -1237h-178zM707 1864h221l278 -248h-184z" />
    <glyph glyph-name="wgrave" unicode="&#x1e81;" horiz-adv-x="1632" 
d="M37 1057h172l264 -856l272 856h148l270 -856l264 856h168l-356 -1057h-158l-264 846l-266 -846h-158zM528 1520h195l244 -293h-164z" />
    <glyph glyph-name="Wacute" unicode="&#x1e82;" horiz-adv-x="2064" 
d="M70 1454h186l342 -1233l348 1233h176l353 -1233l342 1233h178l-436 -1454h-177l-350 1237l-348 -1237h-178zM1038 1616h-184l279 248h221z" />
    <glyph glyph-name="wacute" unicode="&#x1e83;" horiz-adv-x="1632" 
d="M393 0l-356 1057h172l264 -856l272 856h148l270 -856l264 856h168l-356 -1057h-158l-264 846l-266 -846h-158zM827 1227h-163l243 293h195z" />
    <glyph glyph-name="Wdieresis" unicode="&#x1e84;" horiz-adv-x="2064" 
d="M506 0l-436 1454h186l342 -1233l348 1233h176l353 -1233l342 1233h178l-436 -1454h-177l-350 1237l-348 -1237h-178zM1176 1649q-33 29 -33 75t32 77.5t78 31.5q44 0 80 -31q31 -36 31 -78q0 -45 -32.5 -76.5t-78.5 -31.5q-48 0 -77 33zM731 1649q-33 29 -33 75
t32.5 77.5t78.5 31.5q44 0 80 -31q31 -36 31 -78q0 -45 -32.5 -76.5t-78.5 -31.5q-49 0 -78 33z" />
    <glyph glyph-name="wdieresis" unicode="&#x1e85;" horiz-adv-x="1632" 
d="M393 0l-356 1057h172l264 -856l272 856h148l270 -856l264 856h168l-356 -1057h-158l-264 846l-266 -846h-158zM1010 1260q-46 0 -77.5 30.5t-31.5 75.5q0 46 31.5 76.5t77.5 30.5t77 -30.5t31 -76.5t-31 -76t-77 -30zM512 1366q0 46 31.5 76.5t77.5 30.5t77 -30.5
t31 -76.5t-31 -76t-77 -30t-77.5 30.5t-31.5 75.5z" />
    <glyph glyph-name="Germandbls" unicode="&#x1e9e;" horiz-adv-x="1284" 
d="M141 0v891q0 121 35.5 227.5t101 188.5t168.5 130t230 48q155 0 284.5 -69.5t215.5 -198.5l-295 -369q152 -32 244 -148.5t92 -273.5q0 -133 -63.5 -238t-173.5 -162t-245 -57q-149 0 -276 78l59 137q40 -28 100.5 -44.5t114.5 -16.5q132 0 218.5 84.5t86.5 216.5
q0 141 -92 223.5t-237 87.5l-23 105l287 358q-123 129 -293 129q-90 0 -161.5 -35.5t-115.5 -96.5t-67 -138.5t-23 -165.5v-891h-172z" />
    <glyph glyph-name="Ygrave" unicode="&#x1ef2;" horiz-adv-x="1269" 
d="M549 586l-512 868h196l404 -713l403 713h193l-512 -868v-586h-172v586zM311 1864h221l279 -248h-184z" />
    <glyph glyph-name="ygrave" unicode="&#x1ef3;" horiz-adv-x="1071" 
d="M475 10l-438 1047h180l338 -869l305 869h174l-471 -1223q-101 -272 -330 -272q-84 0 -155 39l47 131q48 -25 100 -25q130 0 195 166zM522 1227l-274 293h194l244 -293h-164z" />
    <glyph glyph-name="uni2000" unicode="&#x2000;" horiz-adv-x="1024" 
 />
    <glyph glyph-name="uni2001" unicode="&#x2001;" horiz-adv-x="2048" 
 />
    <glyph glyph-name="uni2002" unicode="&#x2002;" horiz-adv-x="1024" 
 />
    <glyph glyph-name="uni2003" unicode="&#x2003;" horiz-adv-x="2048" 
 />
    <glyph glyph-name="uni2004" unicode="&#x2004;" horiz-adv-x="681" 
 />
    <glyph glyph-name="uni2005" unicode="&#x2005;" horiz-adv-x="512" 
 />
    <glyph glyph-name="uni2006" unicode="&#x2006;" horiz-adv-x="339" 
 />
    <glyph glyph-name="uni2007" unicode="&#x2007;" horiz-adv-x="1216" 
 />
    <glyph glyph-name="uni2008" unicode="&#x2008;" horiz-adv-x="477" 
 />
    <glyph glyph-name="uni2009" unicode="&#x2009;" horiz-adv-x="409" 
 />
    <glyph glyph-name="uni200A" unicode="&#x200a;" horiz-adv-x="129" 
 />
    <glyph glyph-name="uni200B" unicode="&#x200b;" 
 />
    <glyph glyph-name="endash" unicode="&#x2013;" horiz-adv-x="1024" 
d="M0 498v133h1024v-133h-1024z" />
    <glyph glyph-name="emdash" unicode="&#x2014;" horiz-adv-x="2048" 
d="M0 498v133h2048v-133h-2048z" />
    <glyph glyph-name="quoteleft" unicode="&#x2018;" horiz-adv-x="466" 
d="M168 963q-40 27 -61 82.5t-21 111.5q0 109 63 192.5t168 131.5l43 -95q-67 -31 -112 -88.5t-45 -126.5q0 -39 12 -69q20 20 51 20q40 0 66 -27t26 -67q0 -43 -32.5 -69.5t-75.5 -26.5t-82 31z" />
    <glyph glyph-name="quoteright" unicode="&#x2019;" horiz-adv-x="466" 
d="M106 1006q69 31 113.5 88t44.5 127q0 39 -12 69q-20 -20 -51 -20q-40 0 -66 27t-26 67q0 43 32.5 69.5t75.5 26.5q42 0 84 -28q80 -66 80 -197q0 -108 -64 -192.5t-167 -131.5z" />
    <glyph glyph-name="quotesinglbase" unicode="&#x201a;" horiz-adv-x="448" 
d="M106 -225q69 31 113.5 88t44.5 127q0 39 -12 69q-20 -20 -51 -20q-40 0 -66 27t-26 67q0 43 32.5 69.5t75.5 26.5q42 0 84 -28q80 -66 80 -197q0 -109 -63 -192t-168 -131z" />
    <glyph glyph-name="quotedblleft" unicode="&#x201c;" horiz-adv-x="839" 
d="M168 963q-40 27 -61 82.5t-21 111.5q0 109 63 192.5t168 131.5l43 -95q-67 -31 -112 -88.5t-45 -126.5q0 -39 12 -69q20 20 51 20q40 0 66 -27t26 -67q0 -43 -32.5 -69.5t-75.5 -26.5t-82 31zM541 963q-40 27 -61 82.5t-21 111.5q0 109 63 192.5t168 131.5l43 -95
q-67 -31 -112.5 -89t-45.5 -126q0 -37 13 -69q20 20 51 20q40 0 66 -27t26 -67q0 -43 -32.5 -69.5t-75.5 -26.5t-82 31z" />
    <glyph glyph-name="quotedblright" unicode="&#x201d;" horiz-adv-x="839" 
d="M479 1006q69 31 113.5 88t44.5 127q0 39 -12 69q-20 -20 -52 -20q-40 0 -66 27t-26 67q0 42 33 69t76 27q42 0 84 -28q80 -66 80 -197q0 -108 -64.5 -192.5t-167.5 -131.5zM150 911l-44 95q69 31 113.5 88t44.5 127q0 39 -12 69q-20 -20 -51 -20q-40 0 -66 27t-26 67
q0 43 32.5 69.5t75.5 26.5q42 0 84 -28q80 -66 80 -197q0 -108 -64 -192.5t-167 -131.5z" />
    <glyph glyph-name="quotedblbase" unicode="&#x201e;" horiz-adv-x="821" 
d="M479 -225q69 31 113.5 88t44.5 127q0 39 -12 69q-20 -20 -52 -20q-40 0 -66 27t-26 67q0 42 33 69t76 27q42 0 84 -28q80 -66 80 -197q0 -109 -63.5 -192t-168.5 -131zM150 -319l-44 94q69 31 113.5 88t44.5 127q0 39 -12 69q-20 -20 -51 -20q-40 0 -66 27t-26 67
q0 43 32.5 69.5t75.5 26.5q42 0 84 -28q80 -66 80 -197q0 -109 -63 -192t-168 -131z" />
    <glyph glyph-name="dagger" unicode="&#x2020;" horiz-adv-x="940" 
d="M61 1077h334v377h150v-377h334v-133h-334v-1112h-150v1112h-334v133z" />
    <glyph glyph-name="daggerdbl" unicode="&#x2021;" horiz-adv-x="1052" 
d="M119 352h334v592h-334v133h334v377h149v-377h334v-133h-334v-592h334v-133h-334v-387h-149v387h-334v133z" />
    <glyph glyph-name="bullet" unicode="&#x2022;" horiz-adv-x="507" 
d="M90 565q0 66 49 114t115 48q67 0 115.5 -47.5t48.5 -114.5q0 -66 -49 -114t-115 -48t-115 48t-49 114z" />
    <glyph glyph-name="ellipsis" unicode="&#x2026;" horiz-adv-x="1431" 
d="M1192 -6q-49 0 -85 36.5t-36 86.5q0 52 34.5 87.5t86.5 35.5q65 0 106 -60q17 -31 17 -63q0 -31 -17 -62q-39 -61 -106 -61zM238 -6q-49 0 -85 36.5t-36 86.5q0 52 34.5 87.5t86.5 35.5q65 0 106 -60q16 -29 16 -63q0 -33 -16 -62q-39 -61 -106 -61zM594 117
q0 52 34.5 87.5t86.5 35.5q65 0 106 -60q17 -31 17 -63q0 -31 -17 -62q-39 -61 -106 -61q-49 0 -85 36.5t-36 86.5z" />
    <glyph glyph-name="perthousand" unicode="&#x2030;" horiz-adv-x="2213" 
d="M784 299q0 135 88.5 226t225.5 91q134 0 221.5 -90.5t87.5 -226.5t-88 -226.5t-225 -90.5q-134 0 -222 90.5t-88 226.5zM78 1114q0 135 88.5 226.5t224.5 91.5q134 0 221.5 -91t87.5 -227t-88 -226.5t-225 -90.5q-134 0 -221.5 90.5t-87.5 226.5zM1513 299
q0 135 88.5 226t225.5 91q134 0 221.5 -90.5t87.5 -226.5t-88 -226.5t-225 -90.5q-134 0 -222 90.5t-88 226.5zM377 0h-152l883 1413h152zM389 1305q-76 0 -122 -56t-46 -135q0 -77 46 -133.5t122 -56.5q79 0 123.5 55t44.5 135t-44.5 135.5t-123.5 55.5zM1096 489
q-77 0 -122.5 -55.5t-45.5 -134.5q0 -77 46 -133.5t122 -56.5q79 0 123.5 55t44.5 135t-44.5 135t-123.5 55zM1825 489q-77 0 -122.5 -55.5t-45.5 -134.5q0 -77 46 -133.5t122 -56.5q79 0 123.5 55t44.5 135t-44.5 135t-123.5 55z" />
    <glyph glyph-name="guilsinglleft" unicode="&#x2039;" horiz-adv-x="563" 
d="M326 199l-285 385l285 385h166l-279 -385l279 -385h-166z" />
    <glyph glyph-name="guilsinglright" unicode="&#x203a;" horiz-adv-x="563" 
d="M72 199l278 385l-278 385h166l284 -385l-284 -385h-166z" />
    <glyph glyph-name="fraction" unicode="&#x2044;" horiz-adv-x="192" 
d="M-420 0l891 1413h141l-891 -1413h-141z" />
    <glyph glyph-name="uni2080" unicode="&#x2080;" horiz-adv-x="724" 
d="M360 -18q-65 0 -116.5 24t-84.5 63.5t-55.5 93t-31.5 109.5t-9 117q0 76 16 144.5t49.5 129.5t94.5 97.5t142 36.5q91 0 159 -47q138 -104 138 -359q0 -76 -15.5 -145t-49 -130t-94.5 -97.5t-143 -36.5zM362 676q-50 0 -84.5 -28.5t-50.5 -76.5t-22 -91.5t-6 -90.5
t6 -90.5t22 -91.5t50.5 -76.5t84.5 -28.5t84.5 28.5t50.5 76.5t22.5 91.5t6.5 90.5t-6.5 90.5t-22.5 91.5t-50.5 76.5t-84.5 28.5z" />
    <glyph glyph-name="uni2081" unicode="&#x2081;" horiz-adv-x="724" 
d="M360 0v637l-184 -98l-45 108l248 131h117v-778h-136z" />
    <glyph glyph-name="uni2082" unicode="&#x2082;" horiz-adv-x="724" 
d="M92 584q23 99 98 156t179 57q107 0 181.5 -67t74.5 -173q0 -72 -41 -143q-29 -50 -86.5 -110.5t-94 -91.5t-110.5 -91h346v-121h-543v100q12 11 97 80q8 7 40 34t48 42q124 104 176 190q32 49 32 101q0 59 -35 96t-94 37q-55 0 -93 -33t-52 -88z" />
    <glyph glyph-name="uni2083" unicode="&#x2083;" horiz-adv-x="724" 
d="M68 184l125 25q15 -54 58 -82.5t101 -28.5q62 0 106 32.5t44 92.5q0 61 -42 91t-106 30h-88v117h80q59 0 98 28t39 84q0 48 -34 78q-40 29 -95 29q-111 0 -145 -105l-125 25q26 94 100.5 145.5t175.5 51.5q104 0 181 -56t77 -157q0 -121 -116 -176q60 -20 100 -72
q35 -53 35 -119q0 -108 -84.5 -171.5t-198.5 -63.5q-104 0 -180.5 52.5t-105.5 149.5z" />
    <glyph glyph-name="uni2084" unicode="&#x2084;" horiz-adv-x="724" 
d="M53 170v102l355 506h147v-499h92v-109h-92v-170h-131v170h-371zM184 279h240v342z" />
    <glyph glyph-name="colonmonetary" unicode="&#x20a1;" horiz-adv-x="1216" 
d="M332 88q-81 69 -132 175t-69 210.5t-18 220.5q0 79 9 154.5t29 154t54.5 146.5t81.5 125t116 96.5t152 54.5l41 244h109l-39 -235q76 -3 147 -27l43 262h109l-54 -311q140 -93 197 -279l-160 -37q-24 78 -67 132l-174 -1041q93 17 157.5 80.5t93.5 157.5l160 -37
q-46 -153 -161.5 -248t-274.5 -104l-45 -269h-109l45 271q-72 8 -145 41l-51 -312h-109zM457 186q64 -48 141 -57l188 1124q-62 33 -141 33h-4zM281 700q0 -259 84 -409l163 975q-61 -23 -106.5 -71.5t-71.5 -106t-42.5 -129.5t-21.5 -133t-5 -126z" />
    <glyph glyph-name="uni20A8" unicode="&#x20a8;" horiz-adv-x="2082" 
d="M322 0h-164v1413h370q103 0 192 -25t161 -74.5t113.5 -133.5t41.5 -193q0 -134 -71 -235.5t-195 -153.5l338 -598h-188l-299 557q-10 -1 -31 -2t-31 -2q-46 -4 -57 -4q-77 0 -180 14v-563zM1583 -31q-134 0 -244.5 66.5t-158.5 187.5l143 53q39 -76 106 -119.5t152 -43.5
q89 0 159 44.5t70 129.5q0 132 -192 172l-80 16q-328 67 -328 297q0 149 108.5 232t264.5 83q133 0 233.5 -64t145.5 -187l-143 -50q-33 76 -93.5 118t-142.5 42q-50 0 -96 -15.5t-79.5 -53t-33.5 -89.5q0 -33 14 -59.5t34 -43.5t50.5 -30t56.5 -19.5t58 -12.5l80 -17
q65 -13 118.5 -35.5t98 -58t69.5 -89t25 -120.5q0 -79 -33 -143.5t-88.5 -105.5t-126 -63t-147.5 -22zM322 715q114 -15 186 -15q74 0 135.5 14.5t113.5 45.5t81.5 87.5t29.5 133.5q0 74 -27 129.5t-74.5 87.5t-106.5 48t-130 16h-208v-547z" />
    <glyph glyph-name="uni20A9" unicode="&#x20a9;" horiz-adv-x="1902" 
d="M281 811h-203v117h172l-129 485h172l117 -485h346l118 485h160l119 -485h346l117 485h166l-129 -485h172v-117h-203l-53 -209h256v-113h-287l-129 -489h-168l-119 489h-342l-118 -489h-168l-129 489h-287v113h256zM727 811h-289l49 -209h191zM1182 811l51 -209h188
l52 209h-291zM858 811l-49 -209h285l-50 209h-186zM1260 489l69 -280l66 280h-135zM514 489l68 -280l67 280h-135zM950 1190l-63 -262h129z" />
    <glyph glyph-name="uni20AA" unicode="&#x20aa;" horiz-adv-x="1847" 
d="M193 0v1413h573q206 0 329.5 -123.5t123.5 -333.5v-550h-154v546q0 140 -83 216.5t-224 76.5h-412v-1245h-153zM1202 0h-573v1006h153v-838h412q143 0 225 75.5t82 217.5v952h154v-956q0 -205 -122.5 -331t-330.5 -126z" />
    <glyph glyph-name="dong" unicode="&#x20ab;" horiz-adv-x="1216" 
d="M526 -31q-137 0 -244.5 75.5t-163 194.5t-55.5 255q0 102 33 196.5t92.5 168t150 117.5t196.5 44t195 -48t142 -136v292h-282v123h282v162h168v-162h146v-123h-146v-1128h-153l-6 170q-57 -97 -149.5 -149t-205.5 -52zM233 494q0 -98 35.5 -182t110.5 -139.5t176 -55.5
t175.5 54t110.5 138t36 185q0 99 -35 183t-110 138.5t-177 54.5q-150 0 -236 -110t-86 -266zM68 -291v125h1032v-125h-1032z" />
    <glyph glyph-name="Euro" unicode="&#x20ac;" horiz-adv-x="1216" 
d="M158 807h-166l28 121h154q18 106 57.5 196t100.5 163.5t152 115t202 41.5q168 0 291 -99.5t168 -265.5l-154 -37q-35 114 -112.5 181t-192.5 67q-75 0 -137 -30t-103 -82.5t-67.5 -114.5t-40.5 -135h498l-27 -121h-487q-5 -88 -5 -107q0 -18 5 -106h446l-29 -121h-401
q15 -73 41 -133.5t67 -110.5t101.5 -78t136.5 -28q118 0 200 67.5t115 182.5l154 -39q-45 -165 -173 -265t-300 -100q-109 0 -198.5 39t-151 109t-101 159.5t-57.5 196.5h-180l28 121h138q-4 66 -4 102q0 41 4 111z" />
    <glyph glyph-name="uni20AD" unicode="&#x20ad;" horiz-adv-x="1216" 
d="M55 813h152v600h164v-637l547 637h198l-538 -600h444v-139h-440l608 -674h-219l-600 694v-694h-164v674h-152v139z" />
    <glyph glyph-name="uni20B1" unicode="&#x20b1;" horiz-adv-x="1216" 
d="M41 743v113h156v160h-154v112h154v285h352q163 0 286 -70.5t181 -214.5h160v-112h-132q7 -47 7 -84q0 -26 -4 -76h129v-113h-160q-56 -145 -188.5 -218.5t-299.5 -73.5q-74 0 -170 14v-465h-161v743h-156zM358 1016v-160h527q6 38 6 76q0 48 -8 84h-525zM358 743v-135
q80 -14 160 -14q227 0 324 149h-484zM358 1270v-142h480q-45 72 -121.5 107t-169.5 35h-189z" />
    <glyph glyph-name="uni20B9" unicode="&#x20b9;" horiz-adv-x="1216" 
d="M459 1272h-303v141h946l-33 -141h-248q102 -83 123 -217h158l-33 -142h-121q-13 -117 -83.5 -201.5t-171.5 -123.5t-220 -39h-27l656 -549h-256l-690 584v125q30 -10 69 -13q88 -12 185 -12q52 0 97.5 6t91.5 22t80.5 41.5t60 66t34.5 93.5h-618v142h616
q-16 75 -63.5 125t-110 71t-139.5 21z" />
    <glyph glyph-name="uni20BA" unicode="&#x20ba;" horiz-adv-x="1216" 
d="M113 348v133l151 72v201l-149 -72v133l149 72v526h168v-446l336 159v-133l-336 -159v-201l336 160v-134l-336 -159v-342h39q207 0 327 118t152 328l160 -16q-45 -284 -206 -436t-443 -152h-197v420z" />
    <glyph glyph-name="trademark" unicode="&#x2122;" horiz-adv-x="1597" 
d="M754 735v719h129l229 -444l231 444h125v-719h-125v514l-188 -364h-88l-188 364v-514h-125zM274 1339h-215v115h559v-115h-215v-604h-129v604z" />
    <glyph glyph-name="minus" unicode="&#x2212;" horiz-adv-x="1216" 
d="M203 492v145h811v-145h-811z" />
    <glyph glyph-name="uniFEFF" unicode="&#xfeff;" 
 />
    <glyph glyph-name="uniFFFD" unicode="&#xfffd;" horiz-adv-x="1654" 
d="M827 -70l-796 797l796 797l797 -797zM827 1169q-105 0 -188.5 -59.5t-106.5 -159.5l97 -28q21 69 72.5 111t121.5 42q51 0 97 -22q40 -24 65 -66q23 -44 23 -92q0 -49 -20.5 -89t-57 -66.5t-76.5 -43.5t-88 -28v-205h100v147q110 31 181 108.5t71 186.5q0 74 -37 135
q-88 129 -254 129zM741 285q0 -31 22.5 -53.5t53.5 -22.5q30 0 52 23t22 53q0 32 -21 53.5t-53 21.5t-54 -21.5t-22 -53.5z" />
    <glyph glyph-name="glyph1" 
 />
    <glyph glyph-name="zero.aalt" horiz-adv-x="1216" 
d="M606 -31q-113 0 -204 45.5t-148 118.5t-95 171.5t-53.5 198t-15.5 204.5t15 204t53 197.5t95.5 171.5t149 118.5t207.5 45.5q115 0 206 -45t148 -117.5t94.5 -170.5t52.5 -197.5t15 -206.5q0 -104 -15.5 -203t-53.5 -198t-95 -172t-149 -119t-207 -46zM262 707
q0 -52 3.5 -103t14 -110t27 -110.5t43.5 -100.5t62 -83.5t85.5 -55.5t110.5 -21q70 0 127 27t93.5 74.5t62 104.5t39 126t19 129t5.5 123t-5.5 122.5t-18.5 129t-38.5 126t-62 104t-93.5 74.5t-128 27q-70 0 -126.5 -27t-93 -74.5t-62.5 -104.5t-39.5 -125.5t-19 -129
t-5.5 -122.5z" />
    <glyph glyph-name="one.aalt" horiz-adv-x="1216" 
d="M621 0v1227l-336 -189l-68 136l434 239h137v-1413h-167z" />
    <glyph glyph-name="two.aalt" horiz-adv-x="1216" 
d="M137 1073q40 167 166.5 269t298.5 102q185 0 312.5 -119t127.5 -305q0 -80 -27 -159.5t-77 -152.5t-99.5 -129t-115.5 -120q-194 -178 -338 -301h682v-158h-930v139q106 88 170 143t156 138t166.5 161.5t136.5 157.5q104 137 104 265q0 169 -129 251q-62 35 -143 35
q-115 0 -194 -70t-111 -186z" />
    <glyph glyph-name="three.aalt" horiz-adv-x="1216" 
d="M106 326l158 36q40 -114 125 -176.5t205 -62.5q128 0 221.5 72.5t93.5 197.5q0 88 -46 150t-117 89t-160 27h-154v154h148q125 0 212 63t87 185q0 109 -81.5 169t-195.5 60q-113 0 -194 -60.5t-115 -168.5l-156 37q42 163 170.5 254.5t302.5 91.5q84 0 162 -24.5
t141 -69.5t100.5 -118t37.5 -163q0 -112 -56 -197t-159 -129q116 -41 180.5 -134.5t64.5 -217.5t-70.5 -222.5t-179.5 -149t-233 -50.5q-180 0 -310 92.5t-182 264.5z" />
    <glyph glyph-name="four.aalt" horiz-adv-x="1216" 
d="M92 334v131l672 948h168v-936h182v-143h-182v-334h-162v334h-678zM272 477h498v703z" />
    <glyph glyph-name="five.aalt" horiz-adv-x="1216" 
d="M618 -31q-173 0 -305.5 96.5t-183.5 262.5l158 37q35 -111 124.5 -176.5t206.5 -65.5q134 0 223 89.5t89 225.5q0 137 -87.5 223.5t-226.5 86.5q-70 0 -145.5 -31.5t-120.5 -81.5l-137 18v760h786v-158h-628v-452q104 98 274 98q197 0 327 -131t130 -332q0 -131 -65 -239
t-175.5 -169t-243.5 -61z" />
    <glyph glyph-name="six.aalt" horiz-adv-x="1216" 
d="M102 653q0 115 22.5 226t72 214t121 180.5t176.5 124t231 46.5q174 0 317 -98l-63 -136q-106 80 -248 80q-97 0 -176.5 -38t-132 -100.5t-88.5 -146t-52 -171t-16 -177.5q49 123 149 186.5t234 63.5q199 0 335 -130.5t136 -330.5q0 -134 -66 -243.5t-179 -171.5t-248 -62
q-108 0 -197 39.5t-148.5 106t-101 155.5t-60 185t-18.5 198zM635 756q-135 0 -228.5 -85t-93.5 -220q0 -134 92.5 -231t227.5 -97q133 0 224 94.5t91 228.5q0 135 -88.5 222.5t-224.5 87.5z" />
    <glyph glyph-name="seven.aalt" horiz-adv-x="1216" 
d="M342 0l549 1255h-760v158h942v-137l-547 -1276h-184z" />
    <glyph glyph-name="eight.aalt" horiz-adv-x="1216" 
d="M606 -31q-95 0 -182.5 26t-159.5 75t-115 129.5t-43 181.5q0 131 70.5 224.5t194.5 135.5q-102 45 -159.5 128.5t-57.5 191.5q0 117 68 206.5t170.5 133t217.5 43.5q67 0 132 -15.5t122.5 -48t101.5 -77t69.5 -106.5t25.5 -134q0 -108 -57.5 -192.5t-157.5 -127.5
q124 -42 193 -133.5t69 -222.5q0 -98 -43 -179t-114 -132.5t-160 -79t-185 -27.5zM608 659q-64 0 -121 -16t-104.5 -47t-75.5 -84t-28 -121q0 -87 48.5 -149.5t121.5 -90.5t159 -28q63 0 120 16.5t104.5 48t75.5 84.5t28 119q0 130 -95 199t-233 69zM608 1290
q-114 0 -199 -63.5t-85 -175.5q0 -108 85.5 -173t198.5 -65q72 0 135 26t105.5 82t42.5 130q0 67 -35 123q-81 116 -248 116z" />
    <glyph glyph-name="nine.aalt" horiz-adv-x="1216" 
d="M575 516q-129 0 -236.5 56.5t-172 161.5t-64.5 237q0 133 66.5 242t179.5 170t248 61q110 0 199.5 -41.5t149 -110.5t100 -161.5t58 -190.5t17.5 -201q0 -117 -22 -226.5t-70.5 -209t-119.5 -173.5t-176 -117.5t-232 -43.5q-186 0 -324 99l64 135q109 -80 254 -80
q100 0 180.5 35.5t132 94t86 139t49 166.5t14.5 181v21q-49 -118 -150 -181t-231 -63zM274 973q0 -131 91 -218t225 -87q132 0 225.5 85.5t93.5 217.5q0 134 -91.5 226.5t-227.5 92.5q-131 0 -223.5 -92t-92.5 -225z" />
    <glyph glyph-name="hyphen.aalt" horiz-adv-x="763" 
d="M100 678v149h564v-149h-564z" />
    <glyph glyph-name="endash.aalt" horiz-adv-x="1024" 
d="M0 686v133h1024v-133h-1024z" />
    <glyph glyph-name="emdash.aalt" horiz-adv-x="2048" 
d="M0 686v133h2048v-133h-2048z" />
    <glyph glyph-name="parenleft.aalt" horiz-adv-x="661" 
d="M453 -213q-172 197 -262.5 438t-90.5 502t90.5 502t262.5 438h172q-371 -415 -371 -940t371 -940h-172z" />
    <glyph glyph-name="parenright.aalt" horiz-adv-x="661" 
d="M209 -213h-172q371 415 371 940t-371 940h172q352 -400 352 -940q0 -538 -352 -940z" />
    <glyph glyph-name="slash.case" horiz-adv-x="870" 
d="M27 -152l663 1758h154l-664 -1758h-153z" />
    <glyph glyph-name="backslash.aalt" horiz-adv-x="870" 
d="M690 -152l-663 1758h153l664 -1758h-154z" />
    <glyph glyph-name="bracketleft.aalt" horiz-adv-x="696" 
d="M180 1667h434v-127h-288v-1626h288v-127h-434v1880z" />
    <glyph glyph-name="bracketright.aalt" horiz-adv-x="696" 
d="M371 1540h-289v127h434v-1880h-434v127h289v1626z" />
    <glyph glyph-name="braceleft.aalt" horiz-adv-x="708" 
d="M61 666v122h31q75 0 116.5 47t41.5 123q0 57 -8 117q-23 176 -23 281q0 152 91 231.5t249 79.5h68v-127h-66q-95 0 -143.5 -52t-48.5 -149q0 -65 8 -122q22 -150 22 -246q0 -48 -13 -96t-44.5 -90.5t-75.5 -57.5q66 -23 99.5 -94t33.5 -150q0 -96 -22 -243
q-8 -57 -8 -125q0 -97 48.5 -149t143.5 -52h66v-127h-68q-155 0 -247.5 78t-92.5 233q0 105 23 281q8 57 8 117q0 76 -41.5 123t-116.5 47h-31z" />
    <glyph glyph-name="braceright.aalt" horiz-adv-x="708" 
d="M150 -213h-68v127h65q95 0 144 52t49 149q0 68 -8 125q-23 153 -23 243q0 49 13 97t44.5 90t75.5 57q-43 15 -74.5 57.5t-45 91t-13.5 95.5q0 93 23 246q8 57 8 122q0 97 -49 149t-144 52h-65v127h68q155 0 247 -78t92 -233q0 -112 -22 -281q-8 -57 -8 -117
q0 -76 41.5 -123t115.5 -47h31v-122h-31q-74 0 -115.5 -47t-41.5 -123q0 -58 8 -115q22 -172 22 -283q0 -152 -90.5 -231.5t-248.5 -79.5z" />
    <glyph glyph-name="bullet.aalt" horiz-adv-x="507" 
d="M90 748q0 66 49 113.5t115 47.5q67 0 115.5 -47t48.5 -114q0 -66 -49 -114t-115 -48t-115 48t-49 114z" />
    <glyph glyph-name="guilsinglleft.aalt" horiz-adv-x="563" 
d="M326 342l-285 385l285 385h166l-279 -385l279 -385h-166z" />
    <glyph glyph-name="guilsinglright.aalt" horiz-adv-x="563" 
d="M72 342l278 385l-278 385h166l284 -385l-284 -385h-166z" />
    <glyph glyph-name="guillemotleft.aalt" horiz-adv-x="962" 
d="M725 342l-285 385l285 385h166l-279 -385l279 -385h-166zM41 727l285 385h166l-279 -385l279 -385h-166z" />
    <glyph glyph-name="guillemotright.aalt" horiz-adv-x="962" 
d="M750 727l-279 385h166l285 -385l-285 -385h-166zM72 342l278 385l-278 385h166l284 -385l-284 -385h-166z" />
    <glyph glyph-name="at.aalt" horiz-adv-x="2060" 
d="M106 721q0 196 74 368.5t201.5 294.5t304 192.5t375.5 70.5q187 0 351 -62.5t284 -174.5t189 -275.5t69 -356.5q0 -71 -11 -141t-38 -141t-67 -124.5t-103.5 -87.5t-141.5 -34q-99 0 -168.5 57.5t-93.5 153.5q-45 -102 -133.5 -156.5t-202.5 -54.5q-125 0 -225 67.5
t-152.5 175.5t-52.5 234q0 91 30.5 177.5t84 154.5t135 109.5t176.5 41.5q104 0 192 -50t134 -140l8 164h143v-621q0 -71 32.5 -123.5t98.5 -52.5q58 0 100 42.5t62.5 108.5t29.5 125.5t9 112.5q0 212 -93 378.5t-261.5 259.5t-384.5 93q-165 0 -312 -59t-254.5 -162
t-170 -250t-62.5 -315q0 -163 59.5 -307t162.5 -247.5t248.5 -163.5t311.5 -60q244 0 453 120l68 -122q-231 -138 -535 -138q-254 0 -465.5 118.5t-335 329.5t-123.5 470zM1020 1065q-134 0 -214.5 -98t-80.5 -238q0 -138 80 -236t215 -98t215 97.5t80 236.5
q0 140 -78.5 238t-216.5 98z" />
    <glyph glyph-name="periodcentered.case" horiz-adv-x="477" 
d="M117 696q0 52 34.5 87.5t86.5 35.5q66 0 106 -59q16 -29 16 -64q0 -32 -16 -61q-40 -62 -106 -62q-49 0 -85 36.5t-36 86.5z" />
    <glyph glyph-name="exclamdown.aalt" horiz-adv-x="475" 
d="M326 0h-176l8 1067h159zM119 1341q0 48 35 83.5t84 35.5q48 0 83 -35t35 -84q0 -47 -35.5 -82.5t-82.5 -35.5t-83 35.5t-36 82.5z" />
    <glyph glyph-name="questiondown.aalt" horiz-adv-x="1030" 
d="M532 -31q-120 0 -223 50t-167 146.5t-64 219.5q0 169 108.5 288.5t280.5 172.5v221h160v-319q-72 -17 -134 -45t-118 -69.5t-88.5 -103.5t-32.5 -137q0 -78 37 -139q34 -65 100 -99t144 -34q111 0 190.5 62t112.5 171l151 -43q-44 -161 -166 -251.5t-291 -90.5zM428 1341
q0 48 35 83.5t84 35.5q48 0 83.5 -35t35.5 -84q0 -47 -36 -82.5t-83 -35.5t-83 35.5t-36 82.5z" />
    <glyph glyph-name="a.ss01" horiz-adv-x="1273" 
d="M586 -31q-145 0 -260.5 79.5t-175.5 205.5t-60 272t60 273t177 207.5t267 80.5q121 0 221 -58.5t160 -164.5l8 193h147v-1057h-147l-8 201q-62 -113 -162 -172.5t-227 -59.5zM258 528q0 -184 102 -292q47 -56 113.5 -86.5t140.5 -30.5q162 0 259.5 120t97.5 289
q0 177 -101 295q-109 115 -256 115q-108 0 -191 -58.5t-124 -151t-41 -200.5z" />
    <glyph glyph-name="ordfeminine.ss01" horiz-adv-x="880" 
d="M399 651q-101 0 -181.5 55t-122.5 143t-42 189q0 103 42.5 192.5t125 146.5t187.5 57q167 0 254 -140l6 123h135v-749h-135l-9 123q-44 -67 -112 -103.5t-148 -36.5zM430 1300q-103 0 -165 -75.5t-62 -182.5q0 -106 61.5 -182t165.5 -76q103 0 165 75.5t62 182.5
t-61 182.5t-166 75.5z" />
    <glyph glyph-name="glyph199" horiz-adv-x="159" 
d="M-31 770q0 46 32.5 78.5t78.5 32.5t78 -32.5t32 -78.5q0 -44 -33 -77.5t-77 -33.5t-77.5 33.5t-33.5 77.5z" />
    <glyph glyph-name="glyph200" 
d="M-422 780q0 47 35 81t82 34q48 0 82.5 -33t34.5 -82q0 -45 -35.5 -79.5t-81.5 -34.5t-81.5 34.5t-35.5 79.5z" />
    <glyph glyph-name="glyph205" horiz-adv-x="1173" 
d="M135 479v578h164v-568q0 -67 14.5 -124t44 -104.5t82 -74t123.5 -26.5q133 0 218 88.5t85 222.5v586h164v-1004q0 -221 -123.5 -361.5t-345.5 -140.5q-134 0 -246.5 58.5t-173.5 171.5l138 69q109 -157 282 -157q147 0 226 100t79 254v148q-50 -89 -140 -137t-194 -48
q-98 0 -175.5 37.5t-125 102.5t-72 148.5t-24.5 180.5z" />
    <glyph glyph-name="ae.ss01" horiz-adv-x="1998" 
d="M575 -31q-109 0 -201.5 47t-153.5 125t-95.5 178t-34.5 207q0 106 34.5 206.5t96.5 179.5t156 127t205 48q124 0 222.5 -63t149.5 -178l2 211h136l2 -170q128 198 358 198q104 0 191.5 -43.5t144.5 -116.5t89 -166.5t32 -195.5v-67h-801q5 -103 45 -188t119.5 -139
t185.5 -54q185 0 291 166l139 -64q-57 -117 -172 -182.5t-250 -65.5q-119 0 -215 47.5t-157 143.5l-2 -160h-136l-2 215q-53 -114 -154 -180t-225 -66zM258 528q0 -62 14 -120.5t42.5 -111t69 -92t97.5 -62.5t123 -23q108 0 188.5 59t119 150.5t38.5 199.5q0 78 -22.5 150.5
t-64.5 131t-109 93.5t-150 35q-107 0 -187.5 -59.5t-119.5 -151.5t-39 -199zM1116 623h621q-13 136 -92 229.5t-211 93.5q-129 0 -212.5 -93.5t-105.5 -229.5z" />
    <glyph glyph-name="glyph234" 
d="M-45 -469q-91 0 -164 31l31 112q32 -11 63 -18q40 -4 58 -4q45 0 75 18q29 23 29 54q0 79 -151 79l61 211h119l-37 -131q64 -13 110 -58t46 -108q0 -107 -115 -163q-61 -23 -125 -23z" />
    <glyph glyph-name="glyph237" 
d="M-115 -236q0 41 30 67t73 26q38 0 65 -21q62 -42 62 -129q0 -81 -49 -139t-129 -88l-39 88q104 56 104 121q-18 -11 -39 -11q-34 0 -56 25.5t-22 60.5z" />
    <glyph glyph-name="glyph240" 
d="M-315 -356q-25 42 -25 94q0 148 229 309l111 -47q-195 -149 -195 -240q0 -37 23.5 -56t60.5 -19q61 0 109 20l29 -113q-87 -34 -164 -34q-117 0 -178 86z" />
    <glyph glyph-name="glyph241" 
d="M-119 -436q-93 0 -155 47t-62 137q0 156 240 344l110 4q-209 -198 -209 -323q0 -42 27 -66q28 -22 76 -22q52 0 90 20l29 -108q-74 -33 -146 -33z" />
    <glyph glyph-name="glyph242" 
d="M-133 -442q-94 0 -150.5 49.5t-56.5 142.5q0 168 242 361l112 4q-209 -209 -209 -340q0 -40 23 -66q24 -24 66 -24q62 0 104 20l29 -113q-81 -34 -160 -34z" />
    <glyph glyph-name="aogonek.ss01" horiz-adv-x="1273" 
d="M586 -31q-145 0 -260.5 79.5t-175.5 205.5t-60 272t60 273t177 207.5t267 80.5q121 0 221 -58.5t160 -164.5l8 193h147v-1057q-194 -148 -194 -240q0 -37 23.5 -56t60.5 -19q63 0 108 20l29 -108q-97 -33 -162 -33q-53 0 -101 21.5t-73 62.5q-26 39 -26 92
q0 41 16.5 80.5t48 76t58.5 61.5t65 56l-8 187q-62 -113 -162 -172.5t-227 -59.5zM258 528q0 -184 102 -292q47 -56 113.5 -86.5t140.5 -30.5q162 0 259.5 120t97.5 289q0 177 -101 295q-109 115 -256 115q-108 0 -191 -58.5t-124 -151t-41 -200.5z" />
    <glyph glyph-name="glyph270" 
d="M-176 1616l278 248h222l-316 -248h-184z" />
    <glyph glyph-name="glyph273" 
d="M31 1616l291 248h213l-328 -248h-176zM-174 1616h-176l291 248h213z" />
    <glyph glyph-name="Iacute_J_acutecomb.locl" horiz-adv-x="1376" 
d="M678 -41q-188 0 -327 93t-206 270l162 49q50 -120 146 -187t223 -67t216.5 62t131 162.5t41.5 227.5v885h172v-885q0 -172 -61.5 -308t-190 -219t-307.5 -83zM139 596v858h172v-858h-172zM1159 1616h-184l278 248h222zM49 1616l279 248h221l-316 -248h-184z" />
    <glyph glyph-name="iacute_j_acutecomb.locl" horiz-adv-x="1173" 
d="M135 1057h164v-568q0 -67 14.5 -124t44 -104.5t82 -74t123.5 -26.5q133 0 218 88.5t85 222.5v586h164v-1004q0 -221 -123.5 -361.5t-345.5 -140.5q-134 0 -246.5 58.5t-173.5 171.5l138 69q109 -157 282 -157q147 0 226 100t79 254v148q-50 -89 -140 -137t-194 -48
q-98 0 -175.5 37.5t-125 102.5t-72 148.5t-24.5 180.5v578zM797 1227l243 293h195l-274 -293h-164zM229 1227h-163l243 293h195z" />
    <glyph glyph-name="aacute.ss01" horiz-adv-x="1273" 
d="M586 -31q-145 0 -260.5 79.5t-175.5 205.5t-60 272t60 273t177 207.5t267 80.5q121 0 221 -58.5t160 -164.5l8 193h147v-1057h-147l-8 201q-62 -113 -162 -172.5t-227 -59.5zM258 528q0 -184 102 -292q47 -56 113.5 -86.5t140.5 -30.5q162 0 259.5 120t97.5 289
q0 177 -101 295q-109 115 -256 115q-108 0 -191 -58.5t-124 -151t-41 -200.5zM637 1227h-164l244 293h194z" />
    <glyph glyph-name="glyph309" 
d="M-8 1616l-316 248h222l278 -248h-184z" />
    <glyph glyph-name="agrave.ss01" horiz-adv-x="1273" 
d="M586 -31q-145 0 -260.5 79.5t-175.5 205.5t-60 272t60 273t177 207.5t267 80.5q121 0 221 -58.5t160 -164.5l8 193h147v-1057h-147l-8 201q-62 -113 -162 -172.5t-227 -59.5zM614 938q-108 0 -191 -58.5t-124 -151t-41 -200.5q0 -184 102 -292q47 -56 113.5 -86.5
t140.5 -30.5q162 0 259.5 120t97.5 289q0 177 -101 295q-109 115 -256 115zM612 1227l-274 293h194l244 -293h-164z" />
    <glyph glyph-name="glyph328" 
d="M-375 1616l291 248h170l291 -248h-184l-193 145l-195 -145h-180z" />
    <glyph glyph-name="glyph331" 
d="M-365 1624q15 101 71 166t151 65q73 0 157 -53q40 -28 62 -39q32 -16 61 -16q37 0 64 27q28 25 37 71h129q-13 -99 -69 -165t-151 -66q-44 0 -78.5 13.5t-80.5 41.5q-70 53 -123 53q-37 0 -64 -24q-28 -28 -37 -74h-129z" />
    <glyph glyph-name="acircumflex.ss01" horiz-adv-x="1273" 
d="M90 526q0 146 60 273t177 207.5t267 80.5q121 0 221 -58.5t160 -164.5l8 193h147v-1057h-147l-8 201q-62 -113 -162 -172.5t-227 -59.5q-145 0 -260.5 79.5t-175.5 205.5t-60 272zM614 938q-108 0 -191 -58.5t-124 -151t-41 -200.5q0 -184 102 -292q47 -56 113.5 -86.5
t140.5 -30.5q162 0 259.5 120t97.5 289q0 177 -101 295q-109 115 -256 115zM305 1227l250 293h141l250 -293h-160l-161 176l-164 -176h-156z" />
    <glyph glyph-name="atilde.ss01" horiz-adv-x="1273" 
d="M90 526q0 146 60 273t177 207.5t267 80.5q121 0 221 -58.5t160 -164.5l8 193h147v-1057h-147l-8 201q-62 -113 -162 -172.5t-227 -59.5q-145 0 -260.5 79.5t-175.5 205.5t-60 272zM614 938q-108 0 -191 -58.5t-124 -151t-41 -200.5q0 -184 102 -292q47 -56 113.5 -86.5
t140.5 -30.5q162 0 259.5 120t97.5 289q0 177 -101 295q-109 115 -256 115zM428 1227h-125q12 96 60 161.5t137 65.5q75 0 141 -51q34 -26 53 -37q26 -16 49 -16q62 0 80 96h125q-12 -98 -59 -162.5t-137 -64.5q-70 0 -140 53q-25 20 -53 37q-25 14 -51 14q-62 0 -80 -96z
" />
    <glyph glyph-name="glyph360" 
d="M-375 1864h185l194 -146l193 146h180l-291 -248h-170z" />
    <glyph glyph-name="glyph363" 
d="M160 1206l33 314h147l-68 -314h-112z" />
    <glyph glyph-name="glyph365" 
d="M-340 1626v133h680v-133h-680z" />
    <glyph glyph-name="amacron.ss01" horiz-adv-x="1273" 
d="M90 526q0 146 60 273t177 207.5t267 80.5q121 0 221 -58.5t160 -164.5l8 193h147v-1057h-147l-8 201q-62 -113 -162 -172.5t-227 -59.5q-145 0 -260.5 79.5t-175.5 205.5t-60 272zM258 528q0 -184 102 -292q47 -56 113.5 -86.5t140.5 -30.5q162 0 259.5 120t97.5 289
q0 177 -101 295q-109 115 -256 115q-108 0 -191 -58.5t-124 -151t-41 -200.5zM326 1251v131h598v-131h-598z" />
    <glyph glyph-name="glyph396" 
d="M113 1724q0 46 32 77.5t78 31.5q44 0 80 -31q31 -36 31 -78q0 -45 -32.5 -76.5t-78.5 -31.5q-49 0 -78 33q-32 28 -32 75zM-221 1616q-46 0 -78.5 31.5t-32.5 76.5q0 42 31 78q36 31 80 31q46 0 78 -31.5t32 -77.5q0 -47 -32 -75q-29 -33 -78 -33z" />
    <glyph glyph-name="glyph399" 
d="M-328 1868h144q19 -66 67 -101.5t117 -35.5t117 35.5t67 101.5h144q-23 -123 -111.5 -192.5t-216.5 -69.5q-127 0 -216 69t-112 193z" />
    <glyph glyph-name="adieresis.ss01" horiz-adv-x="1273" 
d="M586 -31q-145 0 -260.5 79.5t-175.5 205.5t-60 272t60 273t177 207.5t267 80.5q121 0 221 -58.5t160 -164.5l8 193h147v-1057h-147l-8 201q-62 -113 -162 -172.5t-227 -59.5zM614 938q-108 0 -191 -58.5t-124 -151t-41 -200.5q0 -184 102 -292q47 -56 113.5 -86.5
t140.5 -30.5q162 0 259.5 120t97.5 289q0 177 -101 295q-109 115 -256 115zM711 1366q0 46 31 76.5t77 30.5t77.5 -30.5t31.5 -76.5q0 -45 -31.5 -75.5t-77.5 -30.5t-77 30t-31 76zM322 1366q0 46 31 76.5t77 30.5t77.5 -30.5t31.5 -76.5q0 -45 -31.5 -75.5t-77.5 -30.5
t-77 30t-31 76z" />
    <glyph glyph-name="abreve.ss01" horiz-adv-x="1273" 
d="M586 -31q-145 0 -260.5 79.5t-175.5 205.5t-60 272t60 273t177 207.5t267 80.5q121 0 221 -58.5t160 -164.5l8 193h147v-1057h-147l-8 201q-62 -113 -162 -172.5t-227 -59.5zM614 938q-108 0 -191 -58.5t-124 -151t-41 -200.5q0 -184 102 -292q47 -56 113.5 -86.5
t140.5 -30.5q162 0 259.5 120t97.5 289q0 177 -101 295q-109 115 -256 115zM317 1485h140q15 -65 58 -101t110 -36t110 36t58 101h139q-24 -120 -104 -190t-203 -70q-121 0 -203 69.5t-105 190.5z" />
    <glyph glyph-name="glyph422" 
d="M-117 1731q0 47 34.5 80.5t82.5 33.5t82.5 -32.5t34.5 -81.5q0 -47 -35 -81t-82 -34q-46 0 -81.5 34t-35.5 81z" />
    <glyph glyph-name="glyph425" 
d="M-117 -322q0 47 35 81t82 34q46 0 81.5 -34t35.5 -81t-34.5 -80.5t-82.5 -33.5t-82.5 32.5t-34.5 81.5z" />
    <glyph glyph-name="glyph440" 
d="M-207 1739q0 86 60 143t147 57q86 0 146.5 -57t60.5 -143q0 -84 -61 -142.5t-146 -58.5q-84 0 -145.5 58.5t-61.5 142.5zM-96 1739q0 -40 28.5 -69.5t67.5 -29.5t67.5 29.5t28.5 69.5t-28 69t-68 29t-68 -29t-28 -69z" />
    <glyph glyph-name="aring.ss01" horiz-adv-x="1273" 
d="M586 -31q-145 0 -260.5 79.5t-175.5 205.5t-60 272t60 273t177 207.5t267 80.5q121 0 221 -58.5t160 -164.5l8 193h147v-1057h-147l-8 201q-62 -113 -162 -172.5t-227 -59.5zM614 938q-108 0 -191 -58.5t-124 -151t-41 -200.5q0 -184 102 -292q47 -56 113.5 -86.5
t140.5 -30.5q162 0 259.5 120t97.5 289q0 177 -101 295q-109 115 -256 115zM418 1372q0 85 60.5 143t146.5 58t146 -57t60 -144q0 -86 -59.5 -143.5t-146.5 -57.5q-85 0 -146 58t-61 143zM625 1475q-42 0 -71.5 -30.5t-29.5 -72.5q0 -44 31 -72q27 -30 70 -30q42 0 71 30
t29 72t-29 74q-32 29 -71 29z" />
    <glyph glyph-name="colon_B_e_l_o_colon.dlig" horiz-adv-x="1599" 
d="M424 -20q-131 0 -227.5 91.5t-96.5 223.5q0 41 15 88q9 35 43 115q17 42 55 120q11 22 34.5 71.5t37.5 76.5q12 25 37.5 78.5t39.5 81.5q24 48 72.5 145.5t73.5 145.5l30 57.5t21 40.5q89 160 240 160q83 0 139 -40.5t100 -119.5q6 -11 23.5 -43.5t28.5 -54.5
q46 -94 69 -136q25 -50 78 -155q5 -11 33.5 -70.5t44.5 -89.5q7 -15 31.5 -68.5t37.5 -79.5q71 -145 101 -235q12 -47 12 -88q0 -132 -94.5 -223.5t-228.5 -91.5q-185 0 -375 208q-190 -208 -375 -208zM207 362q-10 -38 -10 -67q0 -90 67 -155.5t158 -65.5q146 0 313 188
q-192 235 -192 410q0 110 72.5 184t183.5 74t183.5 -72.5t72.5 -185.5q0 -174 -193 -410q167 -188 314 -188q90 0 157.5 65.5t67.5 155.5q0 29 -10 67q-3 10 -39 97q-2 3 -21 44.5t-31 69.5q-11 22 -34 71.5t-37 76.5q-15 29 -41 85t-37 79q-13 27 -39 79.5t-39 77.5
q-32 58 -67 134q-9 17 -18.5 34t-18 32t-11.5 20q-23 40 -40.5 62t-48 39t-70.5 17q-58 0 -92 -29t-68 -89q-68 -123 -190 -377q-7 -14 -35.5 -73.5t-44.5 -90.5q-33 -65 -70 -148q-20 -40 -53 -114q-36 -87 -39 -97zM799 834q-71 0 -115.5 -44t-44.5 -114q0 -76 48.5 -169
t111.5 -171q63 78 111 170.5t48 169.5q0 70 -44 114t-115 44z" />
    </font>
</defs>
</svg>
